И грянул шторм / The Finest Hours (2016) BDRip 720p | Line

 
Автор Сообщение

BOSS ®

Пол:

Стаж: 2 года 1 месяц

Сообщений: 3719

Откуда: ODESSA



Награды: 20 (Подробнее)

Mega Seeder 5 (Количество: 1) Mega Seeder 4 (Количество: 1) Top Seeder 5 (Количество: 1)
Торрент-статистика

Создавать темы 15-Май-2016 14:42

[Цитировать]

Информация о фильме
Название: И грянул шторм
Оригинальное название: The Finest Hours
Год выхода: 2016
Жанр: Боевик, триллер, драма, история
Режиссер: Крэйг Гиллеспи
В ролях: Крис Пайн, Кейси Аффлек, Бен Фостер, Эрик Бана, Холлидей Грейнджер, Джон Ортис, Кайл Галлнер, Джон Магаро, Грэм МакТавиш, Майкл Рэймонд-Джеймс, Бо Напп, Джош Стюарт, Абрахам Бенруби, Кейнан Лонсдейл, Рэйчел Броснахэн, Бенжамин Колдык, Мэттью Мехер, Джесси Габбар, Александр Кук, Дэнни Коннелли
О фильме:
18 февраля 1952 года на побережье Новой Англии обрушился сильнейший ураган. Танкер «Пендлтон», направлявшийся в Бостон, был буквально разорван на две части и тридцать два моряка оказались пойманными в ловушку на тонущем судне. Старший ассистент инженера Рэй Сайберт взял в свои руки управление и убедил своих товарищей начать работать сообща, чтобы добраться живыми до берега. Тем временем сообщения о крушении танкера поступили на станцию Береговой Охраны США в г. Чатаме, штат Массачусетс. Офицер Дэниэл Клафф принял решение начать рискованную операцию по спасению команды «Пендлтона». Четверо спасателей во главе с капитаном Берни Вебером на деревянной шлюпке со слабым двигателем и почти без средств навигации, должны будут дать отпор гигантским волнам и ураганному ветру, чтобы спасти терпящих бедствие моряков… Фильм основан на реальных событиях.

Страна: США
Студия: Bergsten Music, Walt Disney Pictures, Whitaker Entertainment
Продолжительность: 01:57:17
Перевод: Дублированный | Чистый звук
Файл
Кодек: MPEG-4
Качество: BDRip 1080p
Видео: 1280x534, 7147 Mbit/s, 23.976 fps
Звук:
Аудио #01: 48 kHz, AC3, 2.0, 256 Kbps | Дублированный, Чистый звук |
Аудио #02: 48 kHz, DTS, 5.1, 1510 kbps | Оригинал |
Субтитры: Русские (forced,full), английские

MI

Общее
Уникальный идентификатор : 177907625470093177662393908485172803853 (0x85D7C32795BE4D87ABBC4D999AF4B90D)
Полное имя : G:VideoThe.Finest.Hours.2016.BDRip.720p.ExKinoRay.mkv
Формат : Matroska
Версия формата : Version 4 / Version 2
Размер файла : 7,30 Гбайт
Продолжительность : 1 ч. 57 м.
Общий поток : 8915 Кбит/сек
Название фильма : The.Finest.Hours.2016.BDRip.720p.ExKinoRay
Дата кодирования : UTC 2016-05-15 12:29:33
Программа кодирования : mkvmerge v8.3.0 ('Over the Horizon') 64bit
Библиотека кодирования : libebml v1.3.1 + libmatroska v1.4.2
Видео
Идентификатор : 1
Формат : AVC
Формат/Информация : Advanced Video Codec
Профиль формата : High@L4.1
Параметр CABAC формата : Да
Параметр ReFrames формата : 12 кадров
Идентификатор кодека : V_MPEG4/ISO/AVC
Продолжительность : 1 ч. 57 м.
Битрейт : 7147 Кбит/сек
Ширина : 1280 пикселей
Высота : 534 пикселя
Соотношение сторон : 2,40:1
Режим частоты кадров : Постоянный
Частота кадров : 23,976 (24000/1001) кадра/сек
Цветовое пространство : YUV
Субдискретизация насыщенности : 4:2:0
Битовая глубина : 8 бит
Тип развёртки : Прогрессивная
Бит/(Пиксели*Кадры) : 0.436
Размер потока : 5,86 Гбайт (80%)
Библиотека кодирования : x264 core 148 r2665+53 6629127 t_mod_Custom [8-bit@all X86_64]
Настройки программы : cabac=1 / ref=12 / deblock=1:-3:-3 / analyse=0x3:0x133 / me=umh / subme=11 / psy=1 / fade_compensate=0.00 / psy_rd=1.05:0.00 / mixed_ref=1 / me_range=32 / chroma_me=1 / trellis=2 / 8x8dct=1 / cqm=0 / deadzone=21,11 / fast_pskip=0 / chroma_qp_offset=-2 / threads=16 / lookahead_threads=2 / sliced_threads=0 / nr=0 / decimate=0 / interlaced=0 / bluray_compat=0 / constrained_intra=0 / fgo=0 / bframes=7 / b_pyramid=2 / b_adapt=2 / b_bias=0 / direct=3 / weightb=1 / open_gop=0 / weightp=2 / keyint=250 / keyint_min=23 / scenecut=40 / intra_refresh=0 / rc_lookahead=150 / rc=crf / mbtree=0 / crf=16.0000 / qcomp=0.70 / qpmin=0:0:0 / qpmax=69:69:69 / qpstep=4 / vbv_maxrate=50000 / vbv_bufsize=62500 / crf_max=0.0 / nal_hrd=none / filler=0 / ip_ratio=1.30 / pb_ratio=1.20 / aq=3:0.80 / aq-sensitivity=10.00 / aq-factor=1.00:1.00:1.00 / aq2=0 / aq3=0
Язык : English
Default : Да
Forced : Нет
Цветовой диапазон : Limited
Коэффициенты матрицы : BT.709
Аудио #1
Идентификатор : 2
Формат : AC-3
Формат/Информация : Audio Coding 3
Расширение режима : CM (complete main)
Параметр Endianness формата : Big
Идентификатор кодека : A_AC3
Продолжительность : 1 ч. 57 м.
Вид битрейта : Постоянный
Битрейт : 256 Кбит/сек
Каналы : 2 канала
Расположение каналов : Front: L R
Частота : 48,0 КГц
Частота кадров : 31,250 кадров/сек (1536 spf)
Метод сжатия : С потерями
Задержка видео : 500 мс.
Размер потока : 215 Мбайт (3%)
Заголовок : DUB [Line]
Язык : Russian
Default : Да
Forced : Нет
Аудио #2
Идентификатор : 3
Формат : DTS
Формат/Информация : Digital Theater Systems
Режим : 16
Параметр Endianness формата : Big
Идентификатор кодека : A_DTS
Продолжительность : 1 ч. 57 м.
Вид битрейта : Постоянный
Битрейт : 1509 Кбит/сек
Каналы : 6 каналов
Расположение каналов : Front: L C R, Side: L R, LFE
Частота : 48,0 КГц
Частота кадров : 93,750 кадра/сек (512 spf)
Битовая глубина : 24 бит
Метод сжатия : С потерями
Размер потока : 1,24 Гбайт (17%)
Заголовок : Original
Язык : English
Default : Нет
Forced : Нет
Текст #1
Идентификатор : 4
Формат : UTF-8
Идентификатор кодека : S_TEXT/UTF8
Идентификатор кодека/Информация : UTF-8 Plain Text
Продолжительность : 1 ч. 49 м.
Битрейт : 1 бит/сек
Count of elements : 13
Размер потока : 978 байт (0%)
Заголовок : Forced
Язык : Russian
Default : Да
Forced : Нет
Текст #2
Идентификатор : 5
Формат : UTF-8
Идентификатор кодека : S_TEXT/UTF8
Идентификатор кодека/Информация : UTF-8 Plain Text
Продолжительность : 1 ч. 49 м.
Битрейт : 72 бит/сек
Count of elements : 968
Размер потока : 58,2 Кбайт (0%)
Заголовок : Full
Язык : Russian
Default : Нет
Forced : Нет
Текст #3
Идентификатор : 6
Формат : UTF-8
Идентификатор кодека : S_TEXT/UTF8
Идентификатор кодека/Информация : UTF-8 Plain Text
Продолжительность : 1 ч. 54 м.
Битрейт : 48 бит/сек
Count of elements : 1419
Размер потока : 41,1 Кбайт (0%)
Язык : English
Default : Нет
Forced : Нет
Текст #4
Идентификатор : 7
Формат : UTF-8
Идентификатор кодека : S_TEXT/UTF8
Идентификатор кодека/Информация : UTF-8 Plain Text
Продолжительность : 1 ч. 55 м.
Битрейт : 54 бит/сек
Count of elements : 1618
Размер потока : 46,1 Кбайт (0%)
Заголовок : SDH
Язык : English
Default : Нет
Forced : Нет
Меню
00:00:00.000 : en:Chapter 01
00:09:13.887 : en:Chapter 02
00:14:22.195 : en:Chapter 03
00:19:52.108 : en:Chapter 04
00:22:56.792 : en:Chapter 05
00:28:34.379 : en:Chapter 06
00:34:05.210 : en:Chapter 07
00:36:59.384 : en:Chapter 08
00:42:50.902 : en:Chapter 09
00:45:01.157 : en:Chapter 10
00:46:59.442 : en:Chapter 11
00:48:44.463 : en:Chapter 12
00:50:12.551 : en:Chapter 13
00:55:53.141 : en:Chapter 14
01:04:47.967 : en:Chapter 15
01:08:58.634 : en:Chapter 16
01:11:38.836 : en:Chapter 17
01:16:16.489 : en:Chapter 18
01:20:30.325 : en:Chapter 19
01:33:30.480 : en:Chapter 20
01:42:27.641 : en:Chapter 21
01:49:40.324 : en:Chapter 22

Скриншоты

[Профиль] [ЛС]
Кто просматривает тему:

Показать сообщения:    

Текущее время: Сегодня 20:43

Часовой пояс: GMT



Вы не можете начинать темы
Вы не можете отвечать на сообщения
Вы не можете редактировать свои сообщения
Вы не можете удалять свои сообщения
Вы не можете голосовать в опросах
Вы не можете прикреплять файлы к сообщениям
Вы не можете скачивать файлы