И грянул шторм / The Finest Hours (2016) WEB-DLRip-AVC | Line

 
Автор Сообщение

достали все ®

Пол:

Стаж: 1 год 8 месяцев

Сообщений: 6515



Награды: 12 (Подробнее)

Mega Releaser 3 (Количество: 1) Top Releaser 2 (Количество: 1) Mega Seeder 5 (Количество: 1)
Торрент-статистика

Создавать темы 15-Апр-2016 04:01

[Цитировать]

Информация о фильме
Название: И грянул шторм
Оригинальное название: The Finest Hours
Год выхода: 2016
Жанр: боевик, триллер, драма, история
Режиссер: Крэйг Гиллеспи
В ролях: Крис Пайн, Бен Фостер, Эрик Бана, Холлидей Грейнджер, Грэм МакТавиш, Рэйчел Броснахэн, Кайл Галлнер, Кейси Аффлек, Джон Магаро, Майкл Рэймонд-Джеймс
О фильме:
Сюжет фильма основан на реальных событиях, произошедших в 1952 году, когда сотрудники береговой охраны в самый разгар шторма, используя деревянные моторные лодки, пытались спасти экипаж двух нефтяных танкеров.
Страна: США
Продолжительность: 01:57:17
Перевод: Профессиональный (полное дублирование) [Центральный канал Line]

Файл
Кодек: x264
Качество: WEB-DLRip-AVC
Видео: MPEG4-AVC, 1024x426 (2.40:1), 23.976 fps, ~1800 kbps avg, 0.172 bit/pixel
Звук:
Аудио #1: AC-3, 48.0 KHz, 6 ch, 384 Kbps, CBR (Russian)
Аудио #2: AC-3, 48.0 KHz, 6 ch, 384 Kbps, CBR (English)

MediaInfo

Общее
Уникальный идентификатор : 194468467206091855281440458942052384424 (0x924D43B13BF76F6B8AB9C255EB513EA8)
Полное имя : The.Finest.Hours.2016.D.WEB-DLRip-AVC.mkv
Формат : Matroska
Версия формата : Version 4 / Version 2
Размер файла : 2,10 Гбайт
Продолжительность : 1 ч. 57 м.
Общий поток : 2565 Кбит/сек
Дата кодирования : UTC 2016-04-14 16:31:55 / UTC 2016-04-07 01:43:24
Программа кодирования : mkvmerge v7.8.0 ('River Man') 64bit built on Mar 27 2015 16:31:37
Библиотека кодирования : libebml v1.3.1 + libmatroska v1.4.2 / Lavf56.22.100
Видео
Идентификатор : 1
Формат : AVC
Формат/Информация : Advanced Video Codec
Профиль формата : High@L4.1
Параметр CABAC формата : Да
Параметр ReFrames формата : 10 кадров
Идентификатор кодека : V_MPEG4/ISO/AVC
Продолжительность : 1 ч. 57 м.
Битрейт : 1800 Кбит/сек
Ширина : 1024 пикселя
Высота : 426 пикселей
Соотношение сторон : 2,40:1
Режим частоты кадров : Постоянный
Частота кадров : 23,976 (23976/1000) кадра/сек
Стандарт вещания : Component
Цветовое пространство : YUV
Субдискретизация насыщенности : 4:2:0
Битовая глубина : 8 бит
Тип развёртки : Прогрессивная
Бит/(Пиксели*Кадры) : 0.172
Размер потока : 1,43 Гбайт (68%)
Библиотека кодирования : x264 core 144 r2525
Настройки программы : cabac=1 / ref=10 / deblock=1:-3:-3 / analyse=0x3:0x112 / me=umh / subme=9 / psy=1 / psy_rd=1.00:1.00 / mixed_ref=0 / me_range=16 / chroma_me=1 / trellis=1 / 8x8dct=1 / cqm=0 / deadzone=21,11 / fast_pskip=1 / chroma_qp_offset=-4 / threads=6 / lookahead_threads=1 / sliced_threads=0 / nr=0 / decimate=1 / interlaced=0 / bluray_compat=0 / constrained_intra=0 / bframes=10 / b_pyramid=2 / b_adapt=2 / b_bias=6 / direct=3 / weightb=0 / open_gop=0 / weightp=1 / keyint=239 / keyint_min=23 / scenecut=49 / intra_refresh=0 / rc_lookahead=40 / rc=2pass / mbtree=1 / bitrate=1800 / ratetol=1.0 / qcomp=0.80 / qpmin=4 / qpmax=69 / qpstep=10 / cplxblur=20.0 / qblur=0.5 / vbv_maxrate=4200 / vbv_bufsize=3500 / nal_hrd=none / filler=0 / ip_ratio=1.00 / aq=3:1.00
Default : Да
Forced : Нет
Цветовой диапазон : Limited
Statistics Tags Issue : mkvmerge v7.8.0 ('River Man') 64bit built on Mar 27 2015 16:31:37 2016-04-14 16:31:55 / mkvmerge v7.8.0 ('River Man') 64bit built on Mar 27 2015 16:31:37 2016-04-14 16:31:55 / UTC 2016-04-07 01:43:24
FromStats_BitRate : 1795296
FromStats_Duration : 01:57:17.746000000
FromStats_FrameCount : 168736
FromStats_StreamSize : 1579354830
Аудио #1
Идентификатор : 2
Формат : AC-3
Формат/Информация : Audio Coding 3
Расширение режима : CM (complete main)
Параметр Endianness формата : Big
Идентификатор кодека : A_AC3
Продолжительность : 1 ч. 57 м.
Вид битрейта : Постоянный
Битрейт : 384 Кбит/сек
Каналы : 6 каналов
Расположение каналов : Front: L C R, Side: L R, LFE
Частота : 48,0 КГц
Частота кадров : 31,250 кадров/сек (1536 spf)
Метод сжатия : С потерями
Задержка видео : -125 мс.
Размер потока : 322 Мбайт (15%)
Язык : Russian
Default : Да
Forced : Нет
Statistics Tags Issue : mkvmerge v7.8.0 ('River Man') 64bit built on Mar 27 2015 16:31:37 2016-04-14 16:31:55 / mkvmerge v7.8.0 ('River Man') 64bit built on Mar 27 2015 16:31:37 2016-04-14 16:31:55 / UTC 2016-04-07 01:43:24
FromStats_BitRate : 384000
FromStats_Duration : 01:57:17.696000000
FromStats_FrameCount : 219928
FromStats_StreamSize : 337809408
Аудио #2
Идентификатор : 3
Формат : AC-3
Формат/Информация : Audio Coding 3
Расширение режима : CM (complete main)
Параметр Endianness формата : Big
Идентификатор кодека : A_AC3
Продолжительность : 1 ч. 57 м.
Вид битрейта : Постоянный
Битрейт : 384 Кбит/сек
Каналы : 6 каналов
Расположение каналов : Front: L C R, Side: L R, LFE
Частота : 48,0 КГц
Частота кадров : 31,250 кадров/сек (1536 spf)
Метод сжатия : С потерями
Задержка видео : -125 мс.
Размер потока : 322 Мбайт (15%)
Язык : English
Default : Нет
Forced : Нет
Statistics Tags Issue : mkvmerge v7.8.0 ('River Man') 64bit built on Mar 27 2015 16:31:37 2016-04-14 16:31:55 / mkvmerge v7.8.0 ('River Man') 64bit built on Mar 27 2015 16:31:37 2016-04-14 16:31:55 / UTC 2016-04-07 01:43:24
FromStats_BitRate : 384000
FromStats_Duration : 01:57:17.696000000
FromStats_FrameCount : 219928
FromStats_StreamSize : 337809408
Меню
00:00:00.000 : en:Meeting Miriam
00:09:14.000 : en:The Dance Hall
00:14:22.000 : en:The Pendleton Under Pressure
00:19:52.000 : en:Distress Call
00:22:57.000 : en:What Should We Do?
00:28:34.000 : en:Ship Spotted
00:34:05.000 : en:Sybert's Plan
00:36:59.000 : en:Volunteers Needed
00:42:51.000 : en:Aiming For The Shoal
00:45:01.000 : en:The Guard Heads Out
00:46:59.000 : en:Miriam Visits The Station
00:48:44.000 : en:Wave!
00:50:12.000 : en:Miriam Confronts Cluff
00:55:53.000 : en:Crossing The Bar
01:04:13.000 : en:Beaching The Pendleton
01:08:58.000 : en:Riding The Waves
01:11:38.000 : en:Time Is Running Out
01:16:16.000 : en:The Waiting Game
01:20:30.000 : en:The Rescue
01:33:30.000 : en:The Long Trip Home
01:42:27.000 : en:Safe Harbor
01:49:40.000 : en:End Credits

Скриншоты

[Профиль] [ЛС]
Кто просматривает тему:

Показать сообщения:    

Текущее время: Сегодня 04:56

Часовой пояс: GMT



Вы не можете начинать темы
Вы не можете отвечать на сообщения
Вы не можете редактировать свои сообщения
Вы не можете удалять свои сообщения
Вы не можете голосовать в опросах
Вы не можете прикреплять файлы к сообщениям
Вы не можете скачивать файлы