И грянул шторм / The Finest Hours (2016) WEB-DL 1080p | Line

 
Автор Сообщение

Russian Mafia ®

Пол:

Стаж: 1 год 8 месяцев

Сообщений: 4246



Награды: 10 (Подробнее)

Mega Seeder 3 (Количество: 1) Top Releaser 3 (Количество: 1) Mega Seeder 5 (Количество: 1)
Торрент-статистика

Создавать темы 13-Апр-2016 20:18

[Цитировать]

Информация о фильме
Название: И грянул шторм
Оригинальное название: The Finest Hours
Год выпуска: 2016
Страна: США
Жанр: боевик, триллер, драма, история-Перевод: Дубляж - [Line]
Примечание: релиз без рекламы
Продолжительность: 01:57:17-Режиссер: Крэйг Гиллеспи
В ролях: Крис Пайн (Bernie Webber), Кейси Аффлек (Ray Sybert), Бен Фостер (Richard Livesey), Эрик Бана (Daniel Cluff), Холлидей Грейнджер (Miriam Webber), Джон Ортис (Wallace Quirey), Кайл Галлнер (Andy Fitzgerald), Джон Магаро (Ervin Maske), Грэм МакТавиш (Frank Fauteux), Майкл Рэймонд-Джеймс (D.A. Brown), Бо Напп (Mel Gouthro), Джош Стюарт (Tchuda Southerland)-Описание:
Сюжет фильма основан на реальных событиях, произошедших в 1952 году, когда сотрудники береговой охраны в самый разгар шторма, используя деревянные моторные лодки, пытались спасти экипаж двух нефтяных танкеров.-Рейтинг:

MPAA: PG-13 - Детям до 13 лет просмотр не желателен-Качество: WEB-DL 1080p
Формат: MKV
Видео: AVC, 1920x800 (2.40:1), 4371 kbps, 23,976 fps, 0,119 bpp
Аудио №1: русский / AC3 / 2.0 / 48 kHz / 384 kbps / 16 bit |Дубляж, Line|
Аудио №2: английский / AC3 / 5.1 / 48 kHz / 384 kbps / 16 bit
Навигация по главам: есть
Семпл-

ОтчетМедиаИнфо

General
Unique ID : 247132957966468149734111255261484496342 (0xB9EC138EE6E8C3C3A1D293DDAC0535D6)
Complete name : H:torrentfilmThe.Finest.Hours.2016.1080p.WEB-DL.DD5.1.H264-RARBGThe.Finest.Hours.2016.1080p.WEB-DL.DD5.1.H264.mkv
Format : Matroska
Format version : Version 4 / Version 2
File size : 4.30 GiB
Duration : 1h 57mn
Overall bit rate : 5 244 Kbps
Movie name : The.Finest.Hours.2016.1080p.WEB-DL.DD5.1.H264
Encoded date : UTC 2016-04-13 18:48:55
Writing application : mkvmerge v9.0.1 ('Obstacles') 64bit
Writing library : libebml v1.3.3 + libmatroska v1.4.4
DURATION : 01:57:17.664000000
NUMBER_OF_FRAMES : 219927
NUMBER_OF_BYTES : 337807872
_STATISTICS_WRITING_APP : mkvmerge v9.0.1 ('Obstacles') 64bit
_STATISTICS_WRITING_DATE_UTC : 2016-04-13 18:48:55
_STATISTICS_TAGS : BPS DURATION NUMBER_OF_FRAMES NUMBER_OF_BYTES
Video
ID : 1
Format : AVC
Format/Info : Advanced Video Codec
Format profile : High@L4.0
Format settings, CABAC : Yes
Format settings, ReFrames : 5 frames
Codec ID : V_MPEG4/ISO/AVC
Duration : 1h 57mn
Bit rate : 4 372 Kbps
Width : 1 920 pixels
Height : 800 pixels
Display aspect ratio : 2.40:1
Frame rate : 23.976 fps
Color space : YUV
Chroma subsampling : 4:2:0
Bit depth : 8 bits
Scan type : Progressive
Bits/(Pixel*Frame) : 0.119
Stream size : 3.58 GiB (83%)
Language : English
Default : Yes
Forced : No
Color primaries : BT.709-5, BT.1361, IEC 61966-2-4, SMPTE RP177
Transfer characteristics : BT.709-5, BT.1361
Matrix coefficients : BT.709-5, BT.1361, IEC 61966-2-4 709, SMPTE RP177
Audio #1
ID : 2
Format : AC-3
Format/Info : Audio Coding 3
Mode extension : CM (complete main)
Codec ID : A_AC3
Duration : 1h 57mn
Bit rate mode : Constant
Bit rate : 384 Kbps
Channel(s) : 2 channels
Channel positions : Front: L R
Sampling rate : 48.0 KHz
Bit depth : 16 bits
Compression mode : Lossy
Stream size : 322 MiB (7%)
Title : Дубляж - Чистый звук
Language : Russian
Default : Yes
Forced : No
Audio #2
ID : 3
Format : AC-3
Format/Info : Audio Coding 3
Mode extension : CM (complete main)
Codec ID : A_AC3
Duration : 1h 57mn
Bit rate mode : Constant
Bit rate : 384 Kbps
Channel(s) : 6 channels
Channel positions : Front: L C R, Side: L R, LFE
Sampling rate : 48.0 KHz
Bit depth : 16 bits
Compression mode : Lossy
Stream size : 322 MiB (7%)
Title : Оригинал
Language : English
Default : No
Forced : No
Menu
00:00:00.000 : en:Meeting Miriam
00:09:14.000 : en:The Dance Hall
00:14:22.000 : en:The Pendleton Under Pressure
00:19:52.000 : en:Distress Call
00:22:57.000 : en:What Should We Do?
00:28:34.000 : en:Ship Spotted
00:34:05.000 : en:Sybert's Plan
00:36:59.000 : en:Volunteers Needed
00:42:51.000 : en:Aiming For The Shoal
00:45:01.000 : en:The Guard Heads Out
00:46:59.000 : en:Miriam Visits The Station
00:48:44.000 : en:Wave!
00:50:12.000 : en:Miriam Confronts Cluff
00:55:53.000 : en:Crossing The Bar
01:04:13.000 : en:Beaching The Pendleton
01:08:58.000 : en:Riding The Waves
01:11:38.000 : en:Time Is Running Out
01:16:16.000 : en:The Waiting Game
01:20:30.000 : en:The Rescue
01:33:30.000 : en:The Long Trip Home
01:42:27.000 : en:Safe Harbor
01:49:40.000 : en:End Credits

Скриншоты

[Профиль] [ЛС]
Кто просматривает тему:

Показать сообщения:    

Текущее время: Сегодня 18:21

Часовой пояс: GMT



Вы не можете начинать темы
Вы не можете отвечать на сообщения
Вы не можете редактировать свои сообщения
Вы не можете удалять свои сообщения
Вы не можете голосовать в опросах
Вы не можете прикреплять файлы к сообщениям
Вы не можете скачивать файлы