И грянул гром / A Sound of Thunder (2005) BDRip 1080p | D, P

 
Автор Сообщение

Russian Mafia ®

Пол:

Стаж: 1 год 8 месяцев

Сообщений: 4256



Награды: 10 (Подробнее)

Mega Seeder 5 (Количество: 1) За внесенный вклад в развитие сайта (Количество: 1) Mega Seeder 4 (Количество: 1)
Торрент-статистика

Создавать темы 06-Авг-2016 19:34

[Цитировать]

Название: И грянул гром
Оригинальное название: A Sound of Thunder
Год выхода: 2005
Страна: Великобритания, США, Германия, Чехия
Студия: Franchise Pictures, Crusader Entertainment, ApolloMedia Distribution
Продолжительность: 01:41:17
Жанр: ужасы, фантастика, боевик, триллер, приключения, ...
Режиссер: Питер Хайамс
В ролях: Эдвард Бёрнс, Катрин МакКормак, Бен Кингсли, Джемайма Рупер, Дэвид Ойелоуо, Армин Роде, Хайке Макач, Вильфрид Хохгольдингер, Август Цирнер, Элвин Ван Дер Куеч, ...
Перевод:
- Профессиональный (дублированный) МОСФИЛЬМ-мастер
- Профессиональный (многоголосный, закадровый) ?
- Субтитры
О фильме: В недалеком будущем, путешествия во времени станут удивительной, непредсказуемой реальностью. За деньги, богатые путешественники могут пробудить свои дремлющие инстинкты охотников, заказывая доисторические сафари, чтобы охотиться на настоящих живых динозавров.
Есть только три важных правила, которые нельзя нарушать: не менять ничего в прошлом; не оставлять ничего там; и самое важное — ничего не брать с собой назад. Малейшее изменение могло бы привести к глобальному изменению эволюции способами, которые даже трудно представить…

Кодек: x264
Качество: BDRip 1080p
Видео: 1920x1080, 14000 kbps, 23,976 fps
Аудио #1: AC-3, 6 ch, 448 kbps (Rus) - Dub Варус Видео
Аудио #2: AC-3, 6 ch, 448 kbps (Rus) - MVO
Аудио #3: DTS, 2 ch, 1509 kbps (Eng)
Субтитры: Русские, Английские

Дополнительная информация

За исходник спасибо - Мастер5

MediaInfo

x264 [info]: frame I:1179 Avg QP:17.02 size:265938
x264 [info]: frame P:34066 Avg QP:19.03 size:140472
x264 [info]: frame B:110471 Avg QP:21.35 size: 50096
x264 [info]: consecutive B-frames: 2.1% 2.9% 5.2% 47.6% 13.1% 14.9% 6.1% 7.2% 0.6% 0.1% 0.0% 0.1% 0.0%
Общее
Уникальный идентификатор : 199911846856123891285648012649546370243 (0x96659F079AEF9EC49CE885BB165FCCC3)
Полное имя : И грянул гром (A Sound Of Thunder) 2005 BDRip 1080p.mkv
Формат : Matroska
Версия формата : Version 2
Размер файла : 11,6 Гбайт
Продолжительность : 1 ч. 41 м.
Общий поток : 16,4 Мбит/сек
Дата кодирования : UTC 2016-08-06 17:38:43
Программа кодирования : mkvmerge v4.0.0 ('The Stars were mine') сборка от Jun 6 2010 16:18:42
Библиотека кодирования : libebml v1.0.0 + libmatroska v1.0.0
Видео
Идентификатор : 1
Формат : AVC
Формат/Информация : Advanced Video Codec
Профиль формата : High@L4.1
Параметр CABAC формата : Да
Параметр ReFrames формата : 5 кадров
Идентификатор кодека : V_MPEG4/ISO/AVC
Продолжительность : 1 ч. 41 м.
Битрейт : 14,0 Мбит/сек
Ширина : 1920 пикселей
Высота : 800 пикселей
Соотношение сторон : 2,40:1
Режим частоты кадров : Постоянный
Частота кадров : 23,976 (24000/1001) кадра/сек
Цветовое пространство : YUV
Субдискретизация насыщенности : 4:2:0
Битовая глубина : 8 бит
Тип развёртки : Прогрессивная
Бит/(Пиксели*Кадры) : 0.380
Размер потока : 9,67 Гбайт (83%)
Библиотека кодирования : x264 core 146 r2538 121396c
Настройки программы : cabac=1 / ref=5 / deblock=1:-3:-3 / analyse=0x3:0x133 / me=umh / subme=11 / psy=1 / psy_rd=1.00:0.00 / mixed_ref=1 / me_range=32 / chroma_me=1 / trellis=2 / 8x8dct=1 / cqm=0 / deadzone=21,11 / fast_pskip=0 / chroma_qp_offset=-2 / threads=12 / lookahead_threads=2 / sliced_threads=0 / nr=0 / decimate=0 / interlaced=0 / bluray_compat=0 / constrained_intra=0 / bframes=12 / b_pyramid=2 / b_adapt=2 / b_bias=0 / direct=3 / weightb=1 / open_gop=0 / weightp=2 / keyint=240 / keyint_min=23 / scenecut=40 / intra_refresh=0 / rc=2pass / mbtree=0 / bitrate=14000 / ratetol=1.0 / qcomp=0.60 / qpmin=0 / qpmax=69 / qpstep=4 / cplxblur=20.0 / qblur=0.5 / ip_ratio=1.40 / pb_ratio=1.30 / aq=1:0.80
Язык : English
Default : Нет
Forced : Нет
Аудио #1
Идентификатор : 2
Формат : AC-3
Формат/Информация : Audio Coding 3
Расширение режима : CM (complete main)
Параметр Endianness формата : Big
Идентификатор кодека : A_AC3
Продолжительность : 1 ч. 41 м.
Вид битрейта : Постоянный
Битрейт : 448 Кбит/сек
Каналы : 6 каналов
Расположение каналов : Front: L C R, Side: L R, LFE
Частота : 48,0 КГц
Частота кадров : 31,250 кадров/сек (1536 spf)
Метод сжатия : С потерями
Размер потока : 325 Мбайт (3%)
Заголовок : Dub МОСФИЛЬМ-мастер
Язык : Russian
Default : Нет
Forced : Нет
Аудио #2
Идентификатор : 3
Формат : AC-3
Формат/Информация : Audio Coding 3
Расширение режима : CM (complete main)
Параметр Endianness формата : Big
Идентификатор кодека : A_AC3
Продолжительность : 1 ч. 41 м.
Вид битрейта : Постоянный
Битрейт : 448 Кбит/сек
Каналы : 6 каналов
Расположение каналов : Front: L C R, Side: L R, LFE
Частота : 48,0 КГц
Частота кадров : 31,250 кадров/сек (1536 spf)
Метод сжатия : С потерями
Размер потока : 325 Мбайт (3%)
Заголовок : MVO
Язык : Russian
Default : Нет
Forced : Нет
Аудио #3
Идентификатор : 4
Формат : DTS
Формат/Информация : Digital Theater Systems
Режим : 16
Параметр Endianness формата : Big
Идентификатор кодека : A_DTS
Продолжительность : 1 ч. 41 м.
Вид битрейта : Постоянный
Битрейт : 1509 Кбит/сек
Каналы : 6 каналов
Расположение каналов : Front: L C R, Side: L R, LFE
Частота : 48,0 КГц
Частота кадров : 93,750 кадра/сек (512 spf)
Битовая глубина : 16 бит
Метод сжатия : С потерями
Размер потока : 1,07 Гбайт (9%)
Язык : Russian
Default : Нет
Forced : Нет
Текст #1
Идентификатор : 5
Формат : UTF-8
Идентификатор кодека : S_TEXT/UTF8
Идентификатор кодека/Информация : UTF-8 Plain Text
Язык : Russian
Default : Нет
Forced : Нет
Текст #2
Идентификатор : 6
Формат : UTF-8
Идентификатор кодека : S_TEXT/UTF8
Идентификатор кодека/Информация : UTF-8 Plain Text
Язык : English
Default : Нет
Forced : Нет

[Профиль] [ЛС]
Кто просматривает тему:

Показать сообщения:    

Текущее время: Сегодня 12:44

Часовой пояс: GMT



Вы не можете начинать темы
Вы не можете отвечать на сообщения
Вы не можете редактировать свои сообщения
Вы не можете удалять свои сообщения
Вы не можете голосовать в опросах
Вы не можете прикреплять файлы к сообщениям
Вы не можете скачивать файлы