И грянет шторм / The Finest Hours (2016) WEBRip 720p | Трейлер

 
Автор Сообщение

BOSS ®

Пол:

Стаж: 2 года 1 месяц

Сообщений: 3735

Откуда: ODESSA



Награды: 20 (Подробнее)

Mega Seeder 1 (Количество: 1) Top Keeper 2 (Количество: 1) Mega Releaser 2 (Количество: 1)
Торрент-статистика

Создавать темы 10-Июл-2015 10:52

[Цитировать]

Год выпуска: 2015
Производство: США
Жанр: триллер, драма
Режиссер: Крэйг Гиллеспи
Продюсеры: Дороти Офиеро, Джеймс Уитакер, Дуглас С. Меррифилд
Актеры: Крис Пайн, Бен Фостер, Холлидей Грейнджер, Эрик Бана, Рэйчел Броснахэн, Джон Магаро ,Кайл Галлнер, Грэм МакТавиш, Кейси Аффлек, Майкл Рэймонд-Джеймс
Описание фильма:
Сюжет фильма основан на реальных событиях, произошедших в 1952 году, когда сотрудники береговой охраны в самый разгар шторма, используя деревянные моторные лодки, пытались спасти экипаж двух нефтяных танкеров.
Дата мировой премьеры: 31 октября 2015
Дата российской премьеры: 4 февраля 2016

Продолжительность: 00:03:02
Качество видео: WEBRip 1080p
Видеокодек: MPEG-4 AVC/H.264
Битрейт видео: 1153 Кбит/сек
Размер кадра: 1280x534
Аудиокодек: AAC
Битрейт аудио: 192 Кбит/сек

MediaInfo:

Общее
Полное имя : Finest-Hours.mp4
Формат : MPEG-4
Профиль формата : Base Media / Version 2
Идентификатор кодека : mp42
Размер файла : 24,2 Мбайт
Продолжительность : 2 м. 30 с.
Режим общего битрейта : Переменный
Общий поток : 1347 Кбит/сек
Дата кодирования : UTC 2015-07-08 16:19:47
Дата пометки : UTC 2015-07-08 16:19:47
Видео
Идентификатор : 1
Формат : AVC
Формат/Информация : Advanced Video Codec
Профиль формата : High@L3.1
Параметр CABAC формата : Да
Параметр ReFrames формата : 1 кадр
Идентификатор кодека : avc1
Идентификатор кодека/Информация : Advanced Video Coding
Продолжительность : 2 м. 30 с.
Битрейт : 1153 Кбит/сек
Максимальный битрейт : 3060 Кбит/сек
Ширина : 1280 пикселей
Высота : 534 пикселя
Соотношение сторон : 2,40:1
Режим частоты кадров : Постоянный
Частота кадров : 23,976 кадра/сек
Цветовое пространство : YUV
Субдискретизация насыщенности : 4:2:0
Битовая глубина : 8 бит
Тип развёртки : Прогрессивная
Бит/(Пиксели*Кадры) : 0.070
Размер потока : 20,7 Мбайт (86%)
Дата пометки : UTC 2015-07-08 16:19:48
Аудио
Идентификатор : 2
Формат : AAC
Формат/Информация : Advanced Audio Codec
Профиль формата : LC
Идентификатор кодека : 40
Продолжительность : 2 м. 30 с.
Вид битрейта : Переменный
Битрейт : 192 Кбит/сек
Максимальный битрейт : 201 Кбит/сек
Каналы : 2 канала
Расположение каналов : Front: L R
Частота : 44,1 КГц
Метод сжатия : С потерями
Размер потока : 3,45 Мбайт (14%)
Заголовок : IsoMedia File Produced by Google, 5-11-2011
Язык : English
Дата кодирования : UTC 2015-07-08 16:19:47
Дата пометки : UTC 2015-07-08 16:19:48
Скриншоты - -

Скриншоты

[Профиль] [ЛС]
Кто просматривает тему:

Показать сообщения:    

Текущее время: Сегодня 14:42

Часовой пояс: GMT



Вы не можете начинать темы
Вы не можете отвечать на сообщения
Вы не можете редактировать свои сообщения
Вы не можете удалять свои сообщения
Вы не можете голосовать в опросах
Вы не можете прикреплять файлы к сообщениям
Вы не можете скачивать файлы