И было хорошо... / Şi eka kine... (Сержиу Плэмэдялэ / Sergiu Plamadeala) [1990, мультфильм, притча, WEBRip]

 
Автор Сообщение

TorrentFilm ®

Пол:

Стаж: 2 года

Сообщений: 7741



Награды: Нет

Торрент-статистика

Создавать темы 08-Июн-2015 00:04

[Цитировать]

И было хорошо... / Şi eka kine...
Страна: Молдавия
Жанр: мультфильм, притча
Продолжительность: 00:10:17
Год выпуска: 1990
Перевод: не требуется
Русские субтитры: нет
Режиссёр: Сержиу Плэмэдялэ / Sergiu Plamadeala
Описание: По мотивам старинной притчи.
Храбрый молодой воин победил дракона. В награду жители города провозгласили его своим повелителем. И всё было хорошо... пока, развращаясь властью, он сам не начал превращаться в чудовище.
Качество: WEBRip
Формат: AVI
Видео: 1477 kbps, 640х464 (1.379), 25.000 fps, MPEG-4 Visual (XviD)
Аудио: 128 kbps, 41.1 kHz, 2 channels, MPEG Audio (MP3)
Субтитры: отсутствуют

Подробные технические данные

GeneralComplete name : Si eka kine (1990).aviFormat : AVIFormat/Info : Audio Video InterleaveFile size : 119 MiBDuration : 10mn 17sOverall bit rate : 1 615 KbpsWriting library : VirtualDub build 35576/release
VideoID : 0Format : MPEG-4 VisualFormat profile : Advanced Simple@L5Format settings, BVOP : 2Format settings, QPel : NoFormat settings, GMC : No warppointsFormat settings, Matrix : Default (H.263)Codec ID : XVIDCodec ID/Hint : XviDDuration : 10mn 17sBit rate : 1 477 KbpsWidth : 640 pixelsHeight : 464 pixelsDisplay aspect ratio : 1.379Frame rate : 25.000 fpsColor space : YUVChroma subsampling : 4:2:0Bit depth : 8 bitsScan type : ProgressiveCompression mode : LossyBits/(Pixel*Frame) : 0.199Stream size : 109 MiB (91%)Writing library : XviD 73
AudioID : 1Format : MPEG AudioFormat version : Version 1Format profile : Layer 3Mode : Joint stereoMode extension : MS StereoCodec ID : 55Codec ID/Hint : MP3Duration : 10mn 16sBit rate mode : ConstantBit rate : 128 KbpsChannel(s) : 2 channelsSampling rate : 44.1 KHzCompression mode : LossyStream size : 9.41 MiB (8%)Alignment : Split accross interleavesInterleave, duration : 40 ms (1.00 video frame)Interleave, preload duration : 500 ms

Скриншоты

[Профиль] [ЛС]
Кто просматривает тему:

Показать сообщения:    

Текущее время: Сегодня 14:36

Часовой пояс: GMT



Вы не можете начинать темы
Вы не можете отвечать на сообщения
Вы не можете редактировать свои сообщения
Вы не можете удалять свои сообщения
Вы не можете голосовать в опросах
Вы не можете прикреплять файлы к сообщениям
Вы не можете скачивать файлы