И были ночи / Haiu Leilot / There were nights (Рон Ниньо / Ron Ninio) [2010, Израиль, драма, TVRip] Sub Rus + Original Heb

 
Автор Сообщение

TorrentFilm ®

Пол:

Стаж: 2 года

Сообщений: 7741



Награды: Нет

Торрент-статистика

Создавать темы 20-Дек-2014 02:00

[Цитировать]

И были ночи / Haiu Leilot / There were nights
Страна: Израиль
Жанр: драма
Год выпуска: 2010
Продолжительность: 01:28:23
Перевод: Субтитры
Cубтитры: русские
Оригинальная аудиодорожка: иврит
Режиссер: Рон Ниньо / Ron Ninio
В ролях: Моше Ивги, Дана Ивги, Майя Коэн, Евгения Додина, Ярон Бровинский
Описание: В семь лет жизнь Гони перевернулась. Счастливая семья разрушилась – сначала отца посадили в тюрьму, а затем мать умерла от рака. Молодая героиня пытается восстановить свою жизнь из руин – наладить отношения с отцом, разобраться в проблемах, терзающих ее с детства, и понять, как справиться с оглушающим одиночеством.
Доп. информация: Огромное спасибо abraka за предоставленную запись!
В 2010 году фильм был номинирован на 8 премий Офира (израильский Оскар) включая лучший фильм, лучший режиссер и лучшая актриса (Дана Ивги).
Сэмпл: http://multi-up.com/1015175
Качество видео: TVRip
Формат видео: AVI
Видео: DivX 5 704x528 25fps 1999kbps
Аудио: MP3 48000Hz stereo 128kbps
Формат субтитров: hardsub (неотключаемые)

MediaInfo

Complete name : D:\downloads\I byli nochi.avi
Format : AVI
Format/Info : Audio Video Interleave
File size : 1.32 GiB
Duration : 1h 28mn
Overall bit rate : 2 137 Kbps
Video
ID : 0
Format : MPEG-4 Visual
Format settings, BVOP : Yes
Format settings, QPel : No
Format settings, GMC : No warppoints
Format settings, Matrix : Default (H.263)
Codec ID : DX50
Codec ID/Hint : DivX 5
Duration : 1h 28mn
Bit rate : 2 000 Kbps
Width : 704 pixels
Height : 528 pixels
Display aspect ratio : 4:3
Frame rate : 25.000 fps
Color space : YUV
Chroma subsampling : 4:2:0
Bit depth : 8 bits
Scan type : Progressive
Compression mode : Lossy
Bits/(Pixel*Frame) : 0.215
Stream size : 1.23 GiB (94%)
Writing library : DivX 6.8.5 (UTC 2009-08-20)
Audio
ID : 1
Format : MPEG Audio
Format version : Version 1
Format profile : Layer 3
Mode : Joint stereo
Mode extension : MS Stereo
Codec ID : 55
Codec ID/Hint : MP3
Duration : 1h 28mn
Bit rate mode : Constant
Bit rate : 128 Kbps
Channel(s) : 2 channels
Sampling rate : 48.0 KHz
Compression mode : Lossy
Stream size : 80.9 MiB (6%)
Alignment : Split accross interleaves
Interleave, duration : 40 ms (1.00 video frame)
Interleave, preload duration : 500 ms

Скриншоты




[Профиль] [ЛС]

Создавать темы 06-Авг-2015 22:53 (спустя 7 месяцев 17 дней)

Топик был перенесен из форума Фильмы до 2014 года в форум Фильмы до 2012 года
sergej644
 

Создавать темы 12-Июн-2016 07:54 (спустя 1 год 5 месяцев)

Топик был перенесен из форума Фильмы 2011 года в форум Фильмы 2010 года
Russian Mafia
 
Кто просматривает тему:

Показать сообщения:    

Текущее время: Сегодня 08:14

Часовой пояс: GMT



Вы не можете начинать темы
Вы не можете отвечать на сообщения
Вы не можете редактировать свои сообщения
Вы не можете удалять свои сообщения
Вы не можете голосовать в опросах
Вы не можете прикреплять файлы к сообщениям
Вы не можете скачивать файлы