Ищу друга на конец света / Seeking a Friend for the End of the World (2012) BDRip-AVC от potroks | D | Лицензия

 
Автор Сообщение

Russian Mafia ®

Пол:

Стаж: 1 год 8 месяцев

Сообщений: 4253



Награды: 10 (Подробнее)

Top Releaser 3 (Количество: 1) Top Releaser 2 (Количество: 1) Mega Seeder 4 (Количество: 1)
Торрент-статистика

Создавать темы 08-Сен-2015 04:17

[Цитировать]

«Любовь подкралась незаметно...»
Год выпуска: 2012
Производство: США, Сингапур, Малайзия, Индонезия / Anonymous Content, Indian Paintbrush
Жанр: Фантастика, драма, мелодрама, комедия
Продолжительность: 01:41:02
Перевод: Профессиональный (полное дублирование) лицензия
Субтитры: Английские, русские (отдельно)
Навигация по главам: Есть-Режиссер: Лорен Скафария
В ролях: Стив Карелл, Кира Найтли, Адам Броди, Дерек Люк, Уильям Л. Питерсен, Роб Кордри, Мартин Шин, Тонита Кастро, Мелани Лински, Пэттон Освальт
О фильме:
К Земле приближается огромный астероид. В такой момент большинство мужчин пустилось бы во все тяжкие. Но только не Додж. Он отправляется на поиски школьной подружки в компании сексуальной соседки Пенни.-Бюджет: $10 000 000 -
Официальный сайт-Качество: BDRip-AVC [Seeking a Friend for the End of the World 2012 1080p Blu-ray AVC DTS-HD MA 5.1-HDChina]
Формат: MKV
Видео: H.264, 1056x448 (2,35:1), 23,976 кадр/сек, 2194 Кбит/сек, 0.193 bit/pixel
Аудио#1: 48 kHz, AC3 Dolby Digital, 3/2 (L,C,R,l,r) + LFE ch, ~448.00 kbps avg | RUS
Аудио#2: 48 kHz, AC3 Dolby Digital, 3/2 (L,C,R,l,r) + LFE ch, ~448.00 kbps avg | ENG
-Автор рипа: potroks-

MI

Общее
Уникальный идентификатор : 197523905728515927117416047340270837890 (0x9499B871366C4BF88C4C3D8F8FAAE082)
Полное имя : Iwju.Druga.na.Konec.Sveta.2012.D.BDRip.x264.potroks.mkv
Формат : Matroska
Версия формата : Version 2
Размер файла : 2,18 Гбайт
Продолжительность : 1 ч. 41 м.
Общий поток : 3091 Кбит/сек
Название фильма : -=POTROKS=-
Дата кодирования : UTC 2012-10-12 04:07:06
Программа кодирования : mkvmerge v5.7.0 ('The Whirlwind') built on Jul 8 2012 20:08:51
Библиотека кодирования : libebml v1.2.3 + libmatroska v1.3.0
Видео
Идентификатор : 1
Формат : AVC
Формат/Информация : Advanced Video Codec
Профиль формата : High@L4.1
Параметр CABAC формата : Да
Параметр ReFrames формата : 9 кадров
Идентификатор кодека : V_MPEG4/ISO/AVC
Продолжительность : 1 ч. 41 м.
Битрейт : 2194 Кбит/сек
Ширина : 1056 пикселей
Высота : 448 пикселей
Соотношение сторон : 2,35:1
Соотношение сторон в оригинале : 2,35:1
Режим частоты кадров : Постоянный
Частота кадров : 23,976 кадра/сек
Цветовое пространство : YUV
Субдискретизация насыщенности : 4:2:0
Битовая глубина : 8 бит
Тип развёртки : Прогрессивная
Бит/(Пиксели*Кадры) : 0.193
Размер потока : 1,51 Гбайт (69%)
Библиотека кодирования : x264 core 128 r2216M 198a7ea
Настройки программы : cabac=1 / ref=10 / deblock=1:-3:-2 / analyse=0x3:0x133 / me=umh / subme=11 / psy=1 / psy_rd=1.05:0.00 / mixed_ref=1 / me_range=32 / chroma_me=1 / trellis=2 / 8x8dct=1 / cqm=0 / deadzone=21,11 / fast_pskip=0 / chroma_qp_offset=-2 / threads=8 / lookahead_threads=1 / sliced_threads=0 / nr=0 / decimate=1 / interlaced=0 / bluray_compat=0 / constrained_intra=0 / bframes=11 / b_pyramid=1 / b_adapt=2 / b_bias=0 / direct=3 / weightb=1 / open_gop=0 / weightp=2 / keyint=240 / keyint_min=1 / scenecut=40 / intra_refresh=0 / rc_lookahead=100 / rc=2pass / mbtree=1 / bitrate=2194 / ratetol=1.0 / qcomp=0.70 / qpmin=10 / qpmax=51 / qpstep=4 / cplxblur=20.0 / qblur=0.5 / vbv_maxrate=20000 / vbv_bufsize=20000 / nal_hrd=none / ip_ratio=1.35 / aq=1:0.80
Default : Да
Forced : Нет
Аудио #1
Идентификатор : 2
Формат : AC-3
Формат/Информация : Audio Coding 3
Расширение режима : CM (complete main)
Параметр Endianness формата : Big
Идентификатор кодека : A_AC3
Продолжительность : 1 ч. 41 м.
Вид битрейта : Постоянный
Битрейт : 448 Кбит/сек
Каналы : 6 каналов
Расположение каналов : Front: L C R, Side: L R, LFE
Частота : 48,0 КГц
Битовая глубина : 16 бит
Метод сжатия : С потерями
Размер потока : 324 Мбайт (14%)
Заголовок : DD 5.1 @ 448 kbps - Dub, R5
Язык : Russian
Default : Да
Forced : Да
Аудио #2
Идентификатор : 3
Формат : AC-3
Формат/Информация : Audio Coding 3
Расширение режима : CM (complete main)
Параметр Endianness формата : Big
Идентификатор кодека : A_AC3
Продолжительность : 1 ч. 41 м.
Вид битрейта : Постоянный
Битрейт : 448 Кбит/сек
Каналы : 6 каналов
Расположение каналов : Front: L C R, Side: L R, LFE
Частота : 48,0 КГц
Битовая глубина : 16 бит
Метод сжатия : С потерями
Задержка видео : 59 мс.
Размер потока : 324 Мбайт (14%)
Заголовок : DD 5.1 @ 448 kbps
Язык : English
Default : Нет
Forced : Нет
Текст
Идентификатор : 4
Формат : UTF-8
Идентификатор кодека : S_TEXT/UTF8
Идентификатор кодека/Информация : UTF-8 Plain Text
Язык : English
Default : Нет
Forced : Нет
Меню
00:00:00.000 : en:00:00:00.000
00:04:28.018 : en:00:04:28.018
00:10:30.547 : en:00:10:30.547
00:16:37.330 : en:00:16:37.330
00:21:35.044 : en:00:21:35.044
00:24:58.080 : en:00:24:58.080
00:31:22.589 : en:00:31:22.589
00:35:11.401 : en:00:35:11.401
00:40:37.685 : en:00:40:37.685
00:45:17.840 : en:00:45:17.840
00:50:00.623 : en:00:50:00.623
00:54:46.700 : en:00:54:46.700
01:01:06.413 : en:01:01:06.413
01:05:32.011 : en:01:05:32.011
01:13:14.181 : en:01:13:14.181
01:17:37.611 : en:01:17:37.611
01:21:50.280 : en:01:21:50.280
01:25:44.890 : en:01:25:44.890
01:28:24.966 : en:01:28:24.966
01:33:57.090 : en:01:33:57.090

Скриншоты

[Профиль] [ЛС]
Кто просматривает тему:

Показать сообщения:    

Текущее время: Сегодня 06:06

Часовой пояс: GMT



Вы не можете начинать темы
Вы не можете отвечать на сообщения
Вы не можете редактировать свои сообщения
Вы не можете удалять свои сообщения
Вы не можете голосовать в опросах
Вы не можете прикреплять файлы к сообщениям
Вы не можете скачивать файлы