Ищу друга на конец света / Seeking a Friend for the End of the World (2012) BDRip 720p от HELLYWOOD

 
Автор Сообщение

sergej644 ®

Пол:

Стаж: 4 года 11 месяцев

Сообщений: 6035

Откуда: Soviet Union



Награды: Нет

Торрент-статистика

Создавать темы 08-Фев-2015 19:32

[Цитировать]

-Ищу друга на конец света / Seeking a Friend for the End of the World (2012) BDRip 720p
Информация о фильме:
Год выпуска: 2012
Страна: США, Сингапур, Малайзия, Индонезия
Жанр: фантастика, драма, мелодрама, комедия
Продолжительность: 01:41:02
Перевод: Профессиональный (полное дублирование)
Оригинальная звуковая дорожка
Субтитры: Русские (Groby), Английские
Режиссер: Лорин Скафария
В ролях: Стив Карелл, Кира Найтли, Адам Броди, Дерек Люк, Уильям Л. Питерсен, Роб Кордри, Мартин Шин, Тонита Кастро, Мелани Лински, Пэттон Освальт
Описание: К Земле приближается огромный астероид. В такой момент большинство мужчин пустилось бы во все тяжкие. Но только не Додж. Он отправляется на поиски школьной подружки в компании сексуальной соседки Пенни.

Релиз от -
Автор рипа: serokuz74
Файл:
Формат: MKV
Качество: BDRip 720p (источник: HQFans /Blu-ray Remux /1080p)
Видео: 1280x546 at 23.976 fps, x264@L4.1, 2pass, ~4720 kbps avg
Аудио #1: 48 kHz, AC3 Dolby Digital, 3/2 (L,C,R,l,r) + LFE ch, ~448 kbps |DUB|
Аудио #2: 48 kHz, AC3 Dolby Digital, 3/2 (L,C,R,l,r) + LFE ch, ~640 kbps |ENG|
Скачать: Семпл

x264 log:

x264 [info]: frame I:1121 Avg QP:11.69 size:162157
x264 [info]: frame P:27361 Avg QP:14.47 size: 55167
x264 [info]: frame B:116862 Avg QP:16.27 size: 16133
x264 [info]: consecutive B-frames: 1.3% 1.0% 4.8% 12.7% 16.7% 44.9% 7.7% 3.0% 2.7% 1.5% 2.0% 1.9%
x264 [info]: mb I I16..4: 21.0% 51.7% 27.3%
x264 [info]: mb P I16..4: 0.4% 11.5% 1.8% P16..4: 23.4% 32.0% 19.8% 5.0% 0.6% skip: 5.6%
x264 [info]: mb B I16..4: 0.1% 1.3% 0.3% B16..8: 28.8% 25.4% 7.3% direct: 7.1% skip:29.9% L0:47.0% L1:37.3% BI:15.6%
x264 [info]: 8x8 transform intra:77.4% inter:48.6%
x264 [info]: direct mvs spatial:97.9% temporal:2.1%
x264 [info]: coded y,uvDC,uvAC intra: 91.4% 97.4% 93.8% inter: 29.1% 36.0% 23.8%
x264 [info]: i16 v,h,dc,p: 24% 6% 23% 47%
x264 [info]: i8 v,h,dc,ddl,ddr,vr,hd,vl,hu: 18% 10% 11% 8% 10% 11% 10% 11% 12%
x264 [info]: i4 v,h,dc,ddl,ddr,vr,hd,vl,hu: 39% 6% 6% 6% 10% 10% 8% 8% 7%
x264 [info]: i8c dc,h,v,p: 48% 19% 18% 15%
x264 [info]: Weighted P-Frames: Y:4.9% UV:2.4%
x264 [info]: ref P L0: 44.1% 7.3% 16.4% 8.6% 6.5% 5.0% 4.2% 2.7% 2.1% 1.7% 1.3% 0.1% 0.0%
x264 [info]: ref B L0: 63.5% 16.9% 7.1% 4.0% 2.9% 2.1% 1.7% 1.0% 0.5% 0.2%
x264 [info]: ref B L1: 92.0% 8.0%

MediaInfo:

General
Unique ID : 177391946281274313380196236703358178911 (0x857472352866442A91C420FF179ED65F)
Complete name : D:Ischu.Druga.Na.Konec.Sveta.2012.BDRip.720p.DUAL.-HELLYWOOD.mkv
Format : Matroska
Format version : Version 2
File size : 4.10 GiB
Duration : 1h 41mn
Overall bit rate : 5 810 Kbps
Movie name : Seeking a Friend for the End of the World (2012) - http://hellywood.ru/
Encoded date : UTC 2014-09-21 06:47:59
Writing application : mkvmerge v6.9.1 ('Blue Panther') 32bit built on Apr 18 2014 18:15:44
Writing library : libebml v1.3.0 + libmatroska v1.4.1
Video
ID : 1
Format : AVC
Format/Info : Advanced Video Codec
Format profile : High@L4.1
Format settings, CABAC : Yes
Format settings, ReFrames : 11 frames
Codec ID : V_MPEG4/ISO/AVC
Duration : 1h 41mn
Bit rate : 4 720 Kbps
Width : 1 280 pixels
Height : 546 pixels
Display aspect ratio : 2.35:1
Frame rate : 23.976 fps
Color space : YUV
Chroma subsampling : 4:2:0
Bit depth : 8 bits
Scan type : Progressive
Bits/(Pixel*Frame) : 0.282
Stream size : 3.25 GiB (79%)
Title : serokuz74
Writing library : x264 core 142 r2453kMod ea0ca51
Encoding settings : cabac=1 / ref=11 / deblock=1:-3:-3 / analyse=0x3:0x133 / me=tesa / subme=11 / psy=1 / fade_compensate=0.00 / psy_rd=1.00:0.05 / mixed_ref=1 / me_range=24 / chroma_me=1 / trellis=2 / 8x8dct=1 / cqm=0 / deadzone=21,11 / fast_pskip=0 / chroma_qp_offset=-3 / threads=12 / lookahead_threads=2 / sliced_threads=0 / nr=0 / decimate=0 / interlaced=0 / bluray_compat=0 / constrained_intra=0 / fgo=0 / bframes=11 / b_pyramid=2 / b_adapt=2 / b_bias=0 / direct=3 / weightb=1 / open_gop=0 / weightp=2 / keyint=250 / keyint_min=23 / scenecut=40 / intra_refresh=0 / rc_lookahead=60 / rc=2pass / mbtree=0 / bitrate=4720 / ratetol=1.0 / qcomp=0.70 / qpmin=0 / qpmax=69 / qpstep=4 / cplxblur=20.0 / qblur=0.5 / vbv_maxrate=50000 / vbv_bufsize=62500 / nal_hrd=none / filler=0 / ip_ratio=1.40 / pb_ratio=1.30 / aq=2:0.80
Language : English
Default : Yes
Forced : No
Matrix coefficients : BT.709-5, BT.1361, IEC 61966-2-4 709, SMPTE RP177
Audio #1
ID : 2
Format : AC-3
Format/Info : Audio Coding 3
Mode extension : CM (complete main)
Format settings, Endianness : Big
Codec ID : A_AC3
Duration : 1h 41mn
Bit rate mode : Constant
Bit rate : 448 Kbps
Channel(s) : 6 channels
Channel positions : Front: L C R, Side: L R, LFE
Sampling rate : 48.0 KHz
Bit depth : 16 bits
Compression mode : Lossy
Stream size : 324 MiB (8%)
Title : AC3 5.1 @ 448 kbps - DUB
Language : Russian
Default : Yes
Forced : No
Audio #2
ID : 3
Format : AC-3
Format/Info : Audio Coding 3
Mode extension : CM (complete main)
Format settings, Endianness : Big
Codec ID : A_AC3
Duration : 1h 41mn
Bit rate mode : Constant
Bit rate : 640 Kbps
Channel(s) : 6 channels
Channel positions : Front: L C R, Side: L R, LFE
Sampling rate : 48.0 KHz
Bit depth : 16 bits
Compression mode : Lossy
Stream size : 463 MiB (11%)
Title : AC3 5.1 @ 640 kbps - Original
Language : English
Default : No
Forced : No
Text #1
ID : 4
Format : UTF-8
Codec ID : S_TEXT/UTF8
Codec ID/Info : UTF-8 Plain Text
Title : Full, Groby
Language : Russian
Default : No
Forced : No
Text #2
ID : 5
Format : UTF-8
Codec ID : S_TEXT/UTF8
Codec ID/Info : UTF-8 Plain Text
Title : Full
Language : English
Default : No
Forced : No
Menu
00:00:00.000 : en:Chapter 01
00:04:28.018 : en:Chapter 02
00:10:30.547 : en:Chapter 03
00:16:37.330 : en:Chapter 04
00:21:35.044 : en:Chapter 05
00:24:58.080 : en:Chapter 06
00:31:22.589 : en:Chapter 07
00:35:11.401 : en:Chapter 08
00:40:37.685 : en:Chapter 09
00:45:17.840 : en:Chapter 10
00:50:00.623 : en:Chapter 11
00:54:46.700 : en:Chapter 12
01:01:06.413 : en:Chapter 13
01:05:32.011 : en:Chapter 14
01:13:14.181 : en:Chapter 15
01:17:37.611 : en:Chapter 16
01:21:50.280 : en:Chapter 17
01:25:44.890 : en:Chapter 18
01:28:24.966 : en:Chapter 19
01:33:57.090 : en:Chapter 20

Скриншоты

Скриншоты:
[Профиль] [ЛС]
Кто просматривает тему:

Показать сообщения:    

Текущее время: Сегодня 18:19

Часовой пояс: GMT



Вы не можете начинать темы
Вы не можете отвечать на сообщения
Вы не можете редактировать свои сообщения
Вы не можете удалять свои сообщения
Вы не можете голосовать в опросах
Вы не можете прикреплять файлы к сообщениям
Вы не можете скачивать файлы