Их знали только в лицо (1966) HDTVRip 720p

 
Автор Сообщение

BOSS ®

Пол:

Стаж: 3 года 2 месяца

Сообщений: 8630

Откуда: ODESSA



Награды: 22 (Подробнее)

Mega Releaser 1 (Количество: 1) Mega Seeder 5 (Количество: 1) Top Seeder 5 (Количество: 1)
Торрент-статистика

Создавать темы 13-Авг-2017 08:31

[Цитировать]

Название: Их знали только в лицо
Страна: СССР
Студия: Студия Довженко
Жанр: Военная драма
Год выпуска: 1966
Продолжительность: 01:26:59
Режиссер: Антон Тимонишин
В ролях: Александр Белявский, Геннадий Воропаев, Марина Стриженова, Ирина Мирошниченко, Лаврентий Масоха, Александр Сердюк, Юрий Волков, Елена Добронравова, Степан Крылов, Борис Савченко, Александр Мовчан, Владимир Емельянов, Олег Комаров, Алексей Смирнов, Владимир Волчик, Сергей Голованов, Анатолий Вербицкий, Генрих Осташевский, Валерий Панарин, Владимир Кисленко
Описание: Один из оккупированных немцами, строжайше охраняемых портов постоянно сотрясают взрывы: взлетают на воздух военные корабли, танкеры с нефтью, транспортеры с продовольствием. Чего только не предпринимает опытный военачальник Рейнкардт для ликвидации партизанского движения: облавы и аресты, вызван отряд из Италии, закаленный в подводной войне с Англией, но ничего не помогает. В ходе расследования в связи с партизанами начинают подозревать Галину Ортынскую, переводчицу из комендатуры порта, аккуратную и исполнительную служащую

Доп. информация: Реставрация изображения и звука. Настоящее HD, видео и звук несравнимо лучше старого DVD + картинка не обрезана по бокам. В данном рипе отсутствуют логотип телеканала и прочая графика.
Сэмпл
Тип релиза: HDTVRip 720p (исходник: HDTV 1080i - MIFAL)
Контейнер: MKV
Видео: x264, 1280x546 (2.35:1), 6973 kbps, 25 fps
Аудио: AC3, 2.0, 48 kHz, 224 kbps

MediaInfo

General
Unique ID : 243254146011976496608112005689461181891 (0xB7010B5D25FA5A41BFB352E9F0A80DC3)
Complete name : Их.знали.только.в.лицо.1966.HDTVRip.720p.mkv
Format : Matroska
Format version : Version 4 / Version 2
File size : 4.37 GiB
Duration : 1 h 26 min
Overall bit rate : 7 199 kb/s
Movie name : Их знали только в лицо (1966)
Encoded date : UTC 2017-08-12 22:20:15
Writing application : mkvmerge v9.9.0 ('Pick Up') 64bit
Writing library : libebml v1.3.4 + libmatroska v1.4.5
Video
ID : 1
Format : AVC
Format/Info : Advanced Video Codec
Format profile : High@L4.1
Format settings, CABAC : Yes
Format settings, RefFrames : 10 frames
Codec ID : V_MPEG4/ISO/AVC
Duration : 1 h 26 min
Bit rate : 6 972 kb/s
Width : 1 280 pixels
Height : 546 pixels
Display aspect ratio : 2.35:1
Frame rate mode : Constant
Frame rate : 25.000 FPS
Color space : YUV
Chroma subsampling : 4:2:0
Bit depth : 8 bits
Scan type : Progressive
Bits/(Pixel*Frame) : 0.399
Stream size : 4.24 GiB (97%)
Writing library : x264 core 152 r2851 ba24899
Encoding settings : cabac=1 / ref=10 / deblock=1:-3:-3 / analyse=0x3:0x113 / me=umh / subme=10 / psy=1 / psy_rd=1.00:0.00 / mixed_ref=1 / me_range=32 / chroma_me=1 / trellis=2 / 8x8dct=1 / cqm=0 / deadzone=21,11 / fast_pskip=0 / chroma_qp_offset=-2 / threads=12 / lookahead_threads=2 / sliced_threads=0 / nr=0 / decimate=1 / interlaced=0 / bluray_compat=0 / constrained_intra=0 / bframes=7 / b_pyramid=2 / b_adapt=2 / b_bias=0 / direct=3 / weightb=1 / open_gop=0 / weightp=2 / keyint=250 / keyint_min=25 / scenecut=40 / intra_refresh=0 / rc_lookahead=40 / rc=2pass / mbtree=0 / bitrate=6972 / ratetol=1.0 / qcomp=0.60 / qpmin=0 / qpmax=69 / qpstep=4 / cplxblur=20.0 / qblur=0.5 / vbv_maxrate=50000 / vbv_bufsize=50000 / nal_hrd=none / filler=0 / ip_ratio=1.40 / pb_ratio=1.30 / aq=1:1.00
Language : Russian
Default : Yes
Forced : No
Audio
ID : 2
Format : AC-3
Format/Info : Audio Coding 3
Format settings, Endianness : Big
Codec ID : A_AC3
Duration : 1 h 26 min
Bit rate mode : Constant
Bit rate : 224 kb/s
Channel(s) : 2 channels
Channel positions : Front: L R
Sampling rate : 48.0 kHz
Frame rate : 31.250 FPS (1536 SPF)
Bit depth : 16 bits
Compression mode : Lossy
Stream size : 139 MiB (3%)
Language : Russian
Service kind : Complete Main
Default : Yes
Forced : No
x264 [info]: frame I:760 Avg QP:16.98 size: 97415
x264 [info]: frame P:26242 Avg QP:19.53 size: 57182
x264 [info]: frame B:103476 Avg QP:21.65 size: 28746
x264 [info]: consecutive B-frames: 1.0% 1.5% 5.2% 18.3% 17.3% 46.0% 8.2% 2.5%

Скриншоты

[Профиль] [ЛС]
Кто просматривает тему:

Показать сообщения:    

Текущее время: Сегодня 12:35

Часовой пояс: GMT



Вы не можете начинать темы
Вы не можете отвечать на сообщения
Вы не можете редактировать свои сообщения
Вы не можете удалять свои сообщения
Вы не можете голосовать в опросах
Вы не можете прикреплять файлы к сообщениям
Вы не можете скачивать файлы