Иуда (Андрей Богатырев) [2013, Россия, драма, HDTV 1080i] + Original Rus

 
Автор Сообщение

TorrentFilm ®

Пол:

Стаж: 2 года

Сообщений: 7741



Награды: Нет

Торрент-статистика

Создавать темы 03-Апр-2015 00:02

[Цитировать]

Иуда
Страна: Россия
Студия: АБС
Жанр: драма
Год выпуска: 2013
Продолжительность: 01:47:34
Перевод: Не требуется
Cубтитры: нет
Оригинальная аудиодорожка: русский
Режиссер: Андрей Богатырев
В ролях: Алексей Шевченков, Сергей Фролов, Андрей Барило, Иван Добронравов, Ольга Сташкевич, Алексей Боченин, Вадим Яковлев, Ольга Аксенова
Описание: Тайный смысл одного из самых известных библейских предательств не могут разгадать вот уже 2000 лет. Фильм-провокация Андрея Богатырёва «Иуда» по нашумевшей повести Леонида Андреева — это обратная сторона истории Иуды Искариота, апостола-изгоя, и поиск ответа на вопрос: почему на самом деле Иуда предал Христа?

Дополнительно:
Призы
- «Серебряный Георгий» за лучшую мужскую роль на 35-м ММКФ
- Международный приз киноклубов за лучший фильм российской программы в рамках ММКФ
- «Лучшая мужская роль имени Михаила Ульянова» на фестивали «Московская Премьера»
- Лучшая мужская роль на кинофестивале в Ялте «Вместе»
- Специальный приз Алексею Шевченкову на фестивале «Амурская Осень»
- Участник конкурса "Flash Forvard" кинофестиваля в Пусане
- Фильм открытие фестиваля "Восток&Запад"
Сэмпл: http://multi-up.com/1039328
Тип релиза: HDTV 1080i
Контейнер: MKV
Видео: AVC, 1920x1080, (16:9), 25 fps, 6.1 Mbps
Аудио 1: Русский, AC3, 48 kHz, 2 ch, 192 kbps
Аудио 2: Русский, MP2, 48 kHz, 2 ch, 192 kbps

MediaInfo

General
Unique ID : 212465102624038999322978586926561454179 (0x9FD74A52F1267791B997723B2FB16863)
Complete name : C:\Иуда_2013_HDTV 1080i_RU.mkv
Format : Matroska
Format version : Version 4 / Version 2
File size : 4.98 GiB
Duration : 1h 47mn
Overall bit rate : 6 630 Kbps
Encoded date : UTC 2015-03-20 07:20:57
Writing application : mkvmerge v7.7.0 ('Six Voices') 64bit built on Feb 28 2015 23:39:33
Writing library : libebml v1.3.1 + libmatroska v1.4.2
DURATION : 01:47:34.008000000
NUMBER_OF_FRAMES : 268917
NUMBER_OF_BYTES : 154896192
_STATISTICS_WRITING_APP : mkvmerge v7.7.0 ('Six Voices') 64bit built on Feb 28 2015 23:39:33
_STATISTICS_WRITING_DATE_UTC : 2015-03-20 07:20:57
_STATISTICS_TAGS : BPS DURATION NUMBER_OF_FRAMES NUMBER_OF_BYTES
Video
ID : 1
Format : AVC
Format/Info : Advanced Video Codec
Format profile : High@L4.0
Format settings, CABAC : Yes
Format settings, ReFrames : 4 frames
Format settings, GOP : M=4, N=28
Codec ID : V_MPEG4/ISO/AVC
Duration : 1h 47mn
Bit rate : 6 114 Kbps
Width : 1 920 pixels
Height : 1 080 pixels
Display aspect ratio : 16:9
Frame rate mode : Constant
Frame rate : 25.000 fps
Standard : Component
Color space : YUV
Chroma subsampling : 4:2:0
Bit depth : 8 bits
Scan type : Interlaced
Scan order : Top Field First
Bits/(Pixel*Frame) : 0.118
Stream size : 4.59 GiB (92%)
Default : Yes
Forced : No
Color primaries : BT.709
Transfer characteristics : BT.709
Matrix coefficients : BT.709
Color range : Limited
Audio #1
ID : 2
Format : AC-3
Format/Info : Audio Coding 3
Mode extension : CM (complete main)
Format settings, Endianness : Big
Codec ID : A_AC3
Duration : 1h 47mn
Bit rate mode : Constant
Bit rate : 192 Kbps
Channel(s) : 2 channels
Channel positions : Front: L R
Sampling rate : 48.0 KHz
Bit depth : 16 bits
Compression mode : Lossy
Stream size : 148 MiB (3%)
Language : Russian
Default : Yes
Forced : No
Audio #2
ID : 3
Format : MPEG Audio
Format version : Version 1
Format profile : Layer 2
Codec ID : A_MPEG/L2
Codec ID/Hint : MP2
Duration : 1h 47mn
Bit rate mode : Constant
Bit rate : 192 Kbps
Channel(s) : 2 channels
Sampling rate : 48.0 KHz
Compression mode : Lossy
Stream size : 148 MiB (3%)
Language : Russian
Default : No
Forced : No

Скриншоты

[Профиль] [ЛС]
Кто просматривает тему:

Форум Тема Автор Размер
Фильмы (DVD 5/9) Иуда (Андрей Богатырев) [2013, Россия, драма, DVD5] TorrentFilm 4.11 GB
Показать сообщения:    

Текущее время: Сегодня 11:07

Часовой пояс: GMT



Вы не можете начинать темы
Вы не можете отвечать на сообщения
Вы не можете редактировать свои сообщения
Вы не можете удалять свои сообщения
Вы не можете голосовать в опросах
Вы не можете прикреплять файлы к сообщениям
Вы не можете скачивать файлы