Итальянец / L\'Italien (Оливье Барру / Olivier Baroux) [2010, Франция, Драма, комедия, HDRip] MVO (Кинопоказ)

 
Автор Сообщение

TorrentFilm ®

Пол:

Стаж: 2 года

Сообщений: 7741



Награды: Нет

Торрент-статистика

Создавать темы 15-Окт-2015 00:02

[Цитировать]

Итальянец / L'Italien- Страна: Франция
Жанр: Драма, комедия
Год выпуска: 2010
Продолжительность: 01:42:38-Перевод: Профессиональный (многоголосый закадровый) [Кинопоказ]
Cубтитры: нет-Режиссер: Оливье Барру / Olivier Baroux-В ролях: Кад Мерад, Валери Бенгиги, Ролан Жиро, Филипп Лефевр, Гийом Гальенн, Сид Ахмед Агуми, Фарида Ушани, Сафия Азедин, Тарек Будали, Натали Леви-Ланг-Описание: Жизнь улыбается Дино Фабрицци — эффектному сорокадвухлетнему итальянцу. Он преуспел и в работе, продавая роскошные «Мазерати» в Ницце, и в личной жизни, где взаимоотношения с преданной Элен должны вскоре увенчаться браком. Но есть маленькая проблема: Дино — вовсе не Дино и совсем не итальянец. Обещание, данное отцу, попавшему в больницу с сердечным приступом, станет для него началом возвращения к себе настоящему. Но можно ли это сделать, не потеряв всё, чего достиг Дино?-Sample | IMDB | КиноПоиск-Тип релиза: HDRip [исх. BDRip 720p]
Формат видео: AVI-Видео: 592x320 (1.85:1), 24.000 fps, XviD build 50, 878 kbps avg, 0.19 bit/pixel
Аудио: 48 kHz, MPEG Layer 3, 2 ch, 128.00 kbps avg [Russian_MVO]-Релиз группы: -

MediaInfo

General
Complete name : D:\Мои релизы\LItalien_HDRip_RG_All_Films.avi
Format : AVI
Format/Info : Audio Video Interleave
File size : 746 MiB
Duration : 1h 42mn
Overall bit rate : 1 016 Kbps
Writing application : VirtualDubMod 1.6.0.0 SURROUND (build 2560/release)
Writing library : VirtualDubMod build 2560/release
Video
ID : 0
Format : MPEG-4 Visual
Format profile : Advanced Simple@L5
Format settings, BVOP : Yes
Format settings, QPel : No
Format settings, GMC : No warppoints
Format settings, Matrix : Custom
Codec ID : XVID
Codec ID/Hint : XviD
Duration : 1h 42mn
Bit rate : 879 Kbps
Width : 592 pixels
Height : 320 pixels
Display aspect ratio : 1.850
Frame rate : 24.000 fps
Color space : YUV
Chroma subsampling : 4:2:0
Bit depth : 8 bits
Scan type : Progressive
Compression mode : Lossy
Bits/(Pixel*Frame) : 0.193
Stream size : 645 MiB (86%)
Writing library : XviD 1.2.1 (UTC 2008-12-04)
Audio
ID : 1
Format : MPEG Audio
Format version : Version 1
Format profile : Layer 3
Mode : Joint stereo
Codec ID : 55
Codec ID/Hint : MP3
Duration : 1h 42mn
Bit rate mode : Constant
Bit rate : 128 Kbps
Channel(s) : 2 channels
Sampling rate : 48.0 KHz
Compression mode : Lossy
Stream size : 94.0 MiB (13%)
Alignment : Aligned on interleaves
Interleave, duration : 42 ms (1.00 video frame)
Interleave, preload duration : 504 ms

Скриншоты

-Торрент-файл перезалит 14.10.2015 по причине замены одноголосой озвучки на профессиональную многоголосую
[Профиль] [ЛС]

Создавать темы 12-Июн-2016 07:53 (спустя 7 месяцев 28 дней)

Топик был перенесен из форума Фильмы 2011 года в форум Фильмы 2010 года
Russian Mafia
 
Кто просматривает тему:

Форум Тема Автор Размер
Вкусная планета Viasat History: История итальянской еды (История еды. История Италии на тарелке) / Eating History. The story of Italy a Plate [серии 1-6 из 6] (Jesus Garces Lambert) [2015-16 г., Документал... skorpionN 4.28 GB
R.G.TorrentFilm Video Бадди едет на запад / Occhio alla penna (Микеле Лупо) [1981 г., комедия, вестерн, BDRemux 1080p] [VO (Joe30)] [Полная итальянская версия] Bathory 16.47 GB
R.G.TorrentFilm Video Бадди едет на запад / Occhio alla penna (Микеле Лупо) [1981 г., комедия, вестерн, BDRip-AVC] [VO (Joe30)] [Полная итальянская версия] Bathory 2.19 GB
R.G.TorrentFilm Video Бадди едет на запад / Occhio alla penna (Микеле Лупо) [1981 г., комедия, вестерн, BDRip] [VO (Joe30)] [Полная итальянская версия] Bathory 1.46 GB
Отечественные cериалы Виталька / Вiталька [06х01-12] (2014) WEBRip Белочка 2.66 GB
Отечественные cериалы Виталька / Вiталька [06х01-15] (2014) WEBRip Белочка 3.3 GB
Отечественные cериалы Виталька / Вiталька [06х01-17] (2014) WEBRip Белочка 3.71 GB
Отечественные cериалы Виталька / Вiталька [06х01-20] (2014) WEBRip Белочка 4.33 GB
Показать сообщения:    

Текущее время: Сегодня 08:51

Часовой пояс: GMT



Вы не можете начинать темы
Вы не можете отвечать на сообщения
Вы не можете редактировать свои сообщения
Вы не можете удалять свои сообщения
Вы не можете голосовать в опросах
Вы не можете прикреплять файлы к сообщениям
Вы не можете скачивать файлы