Исчезнувшая / Gone Girl (Дэвид Финчер / David Fincher) [2014, США, триллер, драма, детектив, BDRip] Dub CEE

 
Автор Сообщение

TorrentFilm ®

Пол:

Стаж: 1 год 11 месяцев

Сообщений: 7741



Награды: Нет

Торрент-статистика

Создавать темы 31-Дек-2014 00:01

[Цитировать]

Исчезнувшая / Gone Girl
«Что имеем — не храним, потерявши — плачем»
-Страна: США / 20th Century Fox Film Corporation, Artemple - Hollywood, New Regency Pictures...
Жанр: триллер, драма, детектив
Год выпуска: 2014
Продолжительность: 02:29:01
Перевод: Профессиональный (дублированный) лицензия CEE
Cубтитры: нет
Режиссёр: Дэвид Финчер / David Fincher
В ролях: Бен Аффлек, Розамунд Пайк, Кэрри Кун, Ким Диккенс, Нил Патрик Харрис, Тайлер Перри, Патрик Фьюджит, Мисси Пайл, Эмили Ратажковски, Скут МакНэйри.
Описание: Всё было готово для празднования пятилетнего юбилея супружеской жизни, когда вдруг необъяснимо пропал один из виновников торжества. Остались следы борьбы в доме, кровь, которую явно пытались стереть, — и цепочка «ключей» в игре под названием «охота за сокровищами»; красивая, умная и невероятно изобретательная жена ежегодно устраивала ее для своего обожаемого мужа. И похоже, что эти «ключи» — размещенные ею тут и там странные записки и не менее странные безделушки — дают единственный шанс пролить свет на судьбу исчезнувшей. Вот только не придется ли «охотнику» в процессе поиска раскрыть миру и пару-тройку собственных малосимпатичных тайн?-Рейтинг
imdb.com: 8.40 (178 140)
kinopoisk.ru: 8.346 (73 415)
MPAA: - лицам до 17 лет обязательно присутствие взрослого-Сэмпл: http://multi-up.com/1022154-Качество видео: BDRip [BDRemux 1080p]
Формат видео: AVI
Видео: XviD build 65, 720x304 (2.37:1), 23.976 fps, ~1701 kbps avg, 0.324 bit/pixel
Аудио: 48 kHz, AC3 Dolby Digital, 3/2 (L,C,R,l,r) + LFE ch, ~384 kbps avg (Dub)
-

MediaInfo

Общее
Полное имя : D:\Gone.Girl.2014.Dub.BDRip.2,18Gb.XviD.AC3.avi
Формат : AVI
Формат/Информация : Audio Video Interleave
Профиль формата : OpenDML
Размер файла : 2,18 Гбайт
Продолжительность : 2 ч. 29 м.
Общий поток : 2097 Кбит/сек
Название фильма : Gone Girl 2014
Режиссёр : David Fincher
Дата записи : 23.12.2014
Программа кодирования : VirtualDubModRus 1.5.10.2 (build 2542/release)
Библиотека кодирования : VirtualDubMod build 2542/release
Правообладатель : Rutracker.org
Примечание : BDRip by MooN_WalkeR
Видео
Идентификатор : 0
Формат : MPEG-4 Visual
Профиль формата : Advanced Simple@L5
Параметр BVOP формата : 1
Параметр QPel формата : Нет
Параметр GMC формата : Без точки перехода
Параметр матрицы формата : Выборочная
Идентификатор кодека : XVID
Идентификатор кодека/Подсказка : XviD
Продолжительность : 2 ч. 29 м.
Битрейт : 1701 Кбит/сек
Ширина : 720 пикселей
Высота : 304 пикселя
Соотношение сторон : 2,35:1
Частота кадров : 23,976 кадра/сек
Цветовое пространство : YUV
Субдискретизация насыщенности : 4:2:0
Битовая глубина : 8 бит
Тип развёртки : Прогрессивная
Метод сжатия : С потерями
Бит/(Пиксели*Кадры) : 0.324
Размер потока : 1,77 Гбайт (81%)
Библиотека кодирования : XviD 65
Аудио
Идентификатор : 1
Формат : AC-3
Формат/Информация : Audio Coding 3
Расширение режима : CM (complete main)
Параметр Endianness формата : Big
Идентификатор кодека : 2000
Продолжительность : 2 ч. 29 м.
Вид битрейта : Постоянный
Битрейт : 384 Кбит/сек
Каналы : 6 каналов
Расположение каналов : Front: L C R, Side: L R, LFE
Частота : 48,0 КГц
Битовая глубина : 16 бит
Метод сжатия : С потерями
Размер потока : 409 Мбайт (18%)
Выравнивание : Разделение по промежуткам
Продолжительность промежутка : 42 мс. (1,00 видеокадр)
Время предзагрузки промежутка : 500 мс.
Заголовок : Dub CEE
[Профиль] [ЛС]
Кто просматривает тему:

Форум Тема Автор Размер
Альтернативная история и наука BBC. Древние затерянные города. Исчезнувшая столица фараона / Lost Cities of the Ancients. The Vanished Capital of the Pharaoh (2006) HDTV [H.264/1080i-LQ] KottoSoft 2.43 GB
Viasat History Viasat History: Загадка исчезновения неандертальцев / Apocalypse Neanderthal [серии 1-2 из 2] (Jason Lavangie) [2015 г., Документально-постановочный, история, археология, SATRip] skorpionN 1.41 GB
Документальные HD В поисках исчезнувших великанов (сезон 1) / Search For The Lost Giants [2014, Познавательный, History Channel HD, HDTV 1080i] TorrentFilm 1.48 GB
Боевики, детективы, триллеры Гиллиан Флинн - Исчезнувшая (2016) MP3 Swager 1000 MB
Фильмы 2015 года Исчезающий иллюзионист / Dirk Ohm - Illusjonisten som forsvant (Бобби Пирс / Bobbie Peers) [2015, Норвегия, Драма, детектив, WEB-DLRip] MVO (Den904 & DeadSno и Datynet) TorrentFilm 1.46 GB
Зарубежные сериалы Исчезновение / Disparue [S01] (2015) WEB-DL 1080p | Первый канал достали все 14.51 GB
Зарубежные сериалы Исчезновение / Disparue [S01] (2015) WEB-DLRip от ExKinoRay | Первый канал Russian Mafia 5.46 GB
Фильмы (HD DVD, Blu-ray и BDRemux) Исчезновение / VANish (2015) BDRemux 1080p sergej644 15.91 GB
Показать сообщения:    

Текущее время: Сегодня 14:01

Часовой пояс: GMT



Вы не можете начинать темы
Вы не можете отвечать на сообщения
Вы не можете редактировать свои сообщения
Вы не можете удалять свои сообщения
Вы не можете голосовать в опросах
Вы не можете прикреплять файлы к сообщениям
Вы не можете скачивать файлы