Исчезнувшая / Gone Girl (Дэвид Финчер / David Fincher) [2014, США, триллер, драма, детектив, BDRip] Dub

 
Автор Сообщение

TorrentFilm ®

Пол:

Стаж: 2 года

Сообщений: 7741



Награды: Нет

Торрент-статистика

Создавать темы 31-Дек-2014 00:00

[Цитировать]

Исчезнувшая / Gone Girl-«Что имеем — не храним, потерявши — плачем»- Страна: США
Жанр: триллер, драма, детектив
Год выпуска: 2014
Продолжительность: 02:29:01
Перевод: Профессиональный (дублированный) - | Лицензия - BD CEE |
Cубтитры: нет
Оригинальная аудиодорожка: нет-Режиссер: Дэвид Финчер / David Fincher-В ролях: Бен Аффлек, Розамунд Пайк, Кэрри Кун, Ким Диккенс, Нил Патрик Харрис, Тайлер Перри, Патрик Фьюджит, Мисси Пайл, Эмили Ратажковски, Скут МакНэйри...-Описание: Все было готово для празднования пятилетнего юбилея супружеской жизни, когда вдруг необъяснимо пропал один из виновников торжества. Остались следы борьбы в доме, кровь, которую явно пытались стереть, — и цепочка «ключей» в игре под названием «охота за сокровищами»; красивая, умная и невероятно изобретательная жена ежегодно устраивала ее для своего обожаемого мужа. И похоже, что эти «ключи» — размещенные ею тут и там странные записки и не менее странные безделушки — дают единственный шанс пролить свет на судьбу исчезнувшей. Вот только не придется ли «охотнику» в процессе поиска раскрыть миру и пару-тройку собственных малосимпатичных тайн?-Автор рипа: _Flash- -Качество видео: BDRip | Blu-Ray EUR - BLUEBIRD |
Формат видео: AVI
Видео: 720x304, 23.976 fps, XviD build 73 ~1203 kbps avg, 0.230 bit/pixel
Аудио: 48 kHz, AC3 Dolby Digital, 2/0 (L,R) ch, ~192 kbps
-

Дополнительно о фильме:

Производство, студия дубляжа, прокат:

Знаете ли вы, что...

MediaInfo

General
Complete name : Gone_Girl.BDRip_By_Flash.avi
Format : AVI
Format/Info : Audio Video Interleave
File size : 1.46 GiB
Duration : 2h 29mn
Overall bit rate : 1 404 Kbps
Writing application : VirtualDubMod 1.5.10.3 | www.virtualdub-fr.org || (build 2550/release)
Writing library : VirtualDubMod build 2550/release
Video
ID : 0
Format : MPEG-4 Visual
Format profile : Advanced Simple@L5
Format settings, BVOP : 1
Format settings, QPel : No
Format settings, GMC : No warppoints
Format settings, Matrix : Custom
Codec ID : XVID
Codec ID/Hint : XviD
Duration : 2h 29mn
Bit rate : 1 203 Kbps
Width : 720 pixels
Height : 304 pixels
Display aspect ratio : 2.35:1
Frame rate : 23.976 fps
Color space : YUV
Chroma subsampling : 4:2:0
Bit depth : 8 bits
Scan type : Progressive
Compression mode : Lossy
Bits/(Pixel*Frame) : 0.229
Stream size : 1.25 GiB (86%)
Writing library : XviD 73
Audio
ID : 1
Format : AC-3
Format/Info : Audio Coding 3
Mode extension : CM (complete main)
Format settings, Endianness : Big
Codec ID : 2000
Duration : 2h 29mn
Bit rate mode : Constant
Bit rate : 192 Kbps
Channel(s) : 2 channels
Channel positions : Front: L R
Sampling rate : 48.0 KHz
Bit depth : 16 bits
Compression mode : Lossy
Stream size : 205 MiB (14%)
Alignment : Split accross interleaves
Interleave, duration : 42 ms (1.00 video frame)
Interleave, preload duration : 500 ms

Скриншот c названием фильма

Скриншоты

[Профиль] [ЛС]
Кто просматривает тему:

Форум Тема Автор Размер
Альтернативная история и наука BBC. Древние затерянные города. Исчезнувшая столица фараона / Lost Cities of the Ancients. The Vanished Capital of the Pharaoh (2006) HDTV [H.264/1080i-LQ] KottoSoft 2.43 GB
Viasat History Viasat History: Загадка исчезновения неандертальцев / Apocalypse Neanderthal [серии 1-2 из 2] (Jason Lavangie) [2015 г., Документально-постановочный, история, археология, SATRip] skorpionN 1.41 GB
Документальные HD В поисках исчезнувших великанов (сезон 1) / Search For The Lost Giants [2014, Познавательный, History Channel HD, HDTV 1080i] TorrentFilm 1.48 GB
Боевики, детективы, триллеры Гиллиан Флинн - Исчезнувшая (2016) MP3 Swager 1000 MB
Фильмы 2015 года Исчезающий иллюзионист / Dirk Ohm - Illusjonisten som forsvant (Бобби Пирс / Bobbie Peers) [2015, Норвегия, Драма, детектив, WEB-DLRip] MVO (Den904 & DeadSno и Datynet) TorrentFilm 1.46 GB
Зарубежные сериалы Исчезновение / Disparue [S01] (2015) WEB-DL 1080p | Первый канал достали все 14.51 GB
Зарубежные сериалы Исчезновение / Disparue [S01] (2015) WEB-DLRip от ExKinoRay | Первый канал Russian Mafia 5.46 GB
Фильмы (HD DVD, Blu-ray и BDRemux) Исчезновение / VANish (2015) BDRemux 1080p sergej644 15.91 GB
Показать сообщения:    

Текущее время: Сегодня 02:16

Часовой пояс: GMT



Вы не можете начинать темы
Вы не можете отвечать на сообщения
Вы не можете редактировать свои сообщения
Вы не можете удалять свои сообщения
Вы не можете голосовать в опросах
Вы не можете прикреплять файлы к сообщениям
Вы не можете скачивать файлы