Исчезнувшая / Gone Girl (Дэвид Финчер / David Fincher) [2014, США, триллер, детектив, BDRip-AVC] Dub (Rus) + Dub (Ukr) + Sub Rus, Ukr, Eng + Original Eng

 
Автор Сообщение

TorrentFilm ®

Пол:

Стаж: 2 года

Сообщений: 7741



Награды: Нет

Торрент-статистика

Создавать темы 30-Дек-2014 00:01

[Цитировать]

Исчезнувшая / Gone Girl«Что имеем — не храним, потерявши — плачем»- Страна: США
Жанр: триллер, детектив
Год выпуска: 2014
Продолжительность: 02:29:01
Перевод: Профессиональный (дублированный) Rus
Перевод 2: Профессиональный (дублированный) Ukr Отдельно
Cубтитры: Rus, Ukr, Eng
Оригинальная аудиодорожка: английский
Режиссер: Дэвид Финчер | David Fincher
В ролях:
Бен Аффлек / Ben Affleck
Розамунд Пайк / Rosamund Pike
Кэрри Кун, Ким Диккенс, Нил Патрик Харрис, Тайлер Перри, Патрик Фьюджит, Бойд Холбрук, Мисси Пайл, Эмили Ратажковски.-ОписаниеВсе было готово для празднования пятилетнего юбилея супружеской жизни, когда вдруг необъяснимо пропал один из виновников торжества. Остались следы борьбы в доме, кровь, которую явно пытались стереть, — и цепочка ключей в игре под названием охота за сокровищами, красивая, умная и невероятно изобретательная жена ежегодно устраивала ее для своего обожаемого мужа. И похоже, что эти ключ — размещенные ею тут и там странные записки и не менее странные безделушки — дают единственный шанс пролить свет на судьбу исчезнувшей. Вот только не придется ли охотнику в процессе поиска раскрыть миру и пару-тройку собственных малосимпатичных тайн?-Сэмпл
Топ 250: 77
IMDb: 8.40 (158 580) Top 250 #98
Качество видео: BDRip-AVC Blu-Ray Disc 1080p] [EUR]
Формат видео: MKV
Видео: AVC 3283 Kbps 1152 x 480 (2.400) 23.976 fps
Аудио: AC-3 384 Kbps 6 channels, 48.0 KHz DUB Rus
Аудио 2: AC-3 384 Kbps 6 channels, 48.0 KHz Eng
Аудио 3: AC-3 384 Kbps 6 channels, 48.0 KHz DUB Ukr Отдельно
Формат субтитров: softsub (SRT)

FAQ по просмотру MKV/h.264 | Хеш файла [info_hash]

FAQ по просмотру MKV/h.264/AAC
Хеш файла [info_hash] (Хеш-сумма)
Или, проще говоря, хеш файла является уникальным идентификатором файла (раздачи)

MediaInfo | LogLog

x264 [info]: frame I:2307 Avg QP:11.41 size:105670
x264 [info]: frame P:46338 Avg QP:13.13 size: 35660
x264 [info]: frame B:165747 Avg QP:14.95 size: 11234
x264 [info]: consecutive B-frames: 1.9% 1.8% 13.9% 17.8% 17.4% 35.2% 5.0% 2.9% 1.7% 0.6% 0.7% 0.4% 0.7%
x264 [info]: mb I I16..4: 17.6% 59.6% 22.8%
x264 [info]: mb P I16..4: 0.5% 10.4% 1.0% P16..4: 24.7% 32.5% 17.4% 4.6% 0.5% skip: 8.3%
x264 [info]: mb B I16..4: 0.0% 0.8% 0.1% B16..8: 26.5% 23.8% 6.5% direct: 6.7% skip:35.6% L0:45.6% L1:40.7% BI:13.7%
x264 [info]: 8x8 transform intra:80.6% inter:39.5%
x264 [info]: coded y,uvDC,uvAC intra: 96.4% 96.5% 93.2% inter: 23.0% 32.0% 24.2%
x264 [info]: i16 v,h,dc,p: 16% 9% 26% 50%
x264 [info]: i8 v,h,dc,ddl,ddr,vr,hd,vl,hu: 14% 11% 15% 8% 10% 10% 10% 11% 12%
x264 [info]: i4 v,h,dc,ddl,ddr,vr,hd,vl,hu: 13% 10% 5% 9% 14% 14% 12% 11% 12%
x264 [info]: i8c dc,h,v,p: 58% 13% 14% 15%
x264 [info]: Weighted P-Frames: Y:3.5% UV:2.2%
x264 [info]: ref P L0: 45.9% 6.1% 20.0% 6.2% 6.2% 3.8% 4.0% 1.7% 1.9% 1.3% 1.5% 1.2% 0.3% 0.0%
x264 [info]: ref B L0: 64.5% 14.8% 6.6% 3.9% 2.7% 2.6% 1.8% 1.2% 0.9% 0.6% 0.2%
x264 [info]: ref B L1: 91.5% 8.5%
x264 [info]: kb/s:3362.32
x264 [total]: encoded 214392 frames, 10.33 fps, 3362.32 kb/s, duration 5:45:48.47
Format : Matroska
Format version : Version 4 / Version 2
File size : 4.30 GiB
Duration : 2h 29mn
Overall bit rate : 4 133 Kbps
Encoded date : UTC 2014-12-21 14:30:18
Writing application : mkvmerge v6.7.0 ('Back to the Ground') 32bit built on Jan 8 2014 15:03:17
Writing library : libebml v1.3.0 + libmatroska v1.4.1
Video
ID : 1
Format : AVC
Format/Info : Advanced Video Codec
Format profile : High@L4.1
Format settings, CABAC : Yes
Format settings, ReFrames : 12 frames
Codec ID : V_MPEG4/ISO/AVC
Duration : 2h 29mn
Bit rate : 3 283 Kbps
Width : 1 152 pixels
Height : 480 pixels
Display aspect ratio : 2.40:1
Frame rate mode : Constant
Frame rate : 23.976 fps
Color space : YUV
Chroma subsampling : 4:2:0
Bit depth : 8 bits
Scan type : Progressive
Bits/(Pixel*Frame) : 0.248
Stream size : 3.42 GiB (79%)
Title : Gone Girl [torrentfilm.net]
Writing library : x264 core 142 r2453kMod ea0ca51
Encoding settings : cabac=1 / ref=12 / deblock=1:-2:-1 / analyse=0x3:0x133 / me=umh / subme=11 / psy=1 / fade_compensate=0.00 / psy_rd=1.00:0.05 / mixed_ref=1 / me_range=32 / chroma_me=1 / trellis=2 / 8x8dct=1 / cqm=0 / deadzone=21,11 / fast_pskip=0 / chroma_qp_offset=-3 / threads=12 / lookahead_threads=3 / sliced_threads=0 / nr=0 / decimate=1 / interlaced=0 / bluray_compat=0 / constrained_intra=0 / fgo=0 / bframes=12 / b_pyramid=2 / b_adapt=2 / b_bias=0 / direct=1 / weightb=1 / open_gop=0 / weightp=2 / keyint=250 / keyint_min=23 / scenecut=40 / intra_refresh=0 / rc_lookahead=60 / rc=crf / mbtree=0 / crf=16.1000 / qcomp=0.60 / qpmin=0 / qpmax=69 / qpstep=4 / vbv_maxrate=50000 / vbv_bufsize=62500 / crf_max=0.0 / nal_hrd=none / filler=0 / ip_ratio=1.40 / pb_ratio=1.30 / aq=3:0.90
Language : English
Default : Yes
Forced : No
Audio #1
ID : 2
Format : AC-3
Format/Info : Audio Coding 3
Mode extension : CM (complete main)
Format settings, Endianness : Big
Codec ID : A_AC3
Duration : 2h 29mn
Bit rate mode : Constant
Bit rate : 384 Kbps
Channel(s) : 6 channels
Channel positions : Front: L C R, Side: L R, LFE
Sampling rate : 48.0 KHz
Bit depth : 16 bits
Compression mode : Lossy
Stream size : 409 MiB (9%)
Title : DUB
Language : Russian
Default : Yes
Forced : No
Audio #2
ID : 3
Format : AC-3
Format/Info : Audio Coding 3
Mode extension : CM (complete main)
Format settings, Endianness : Big
Codec ID : A_AC3
Duration : 2h 29mn
Bit rate mode : Constant
Bit rate : 384 Kbps
Channel(s) : 6 channels
Channel positions : Front: L C R, Side: L R, LFE
Sampling rate : 48.0 KHz
Bit depth : 16 bits
Compression mode : Lossy
Stream size : 409 MiB (9%)
Title : Original
Language : English
Default : No
Forced : No
Text #1
ID : 4
Format : UTF-8
Codec ID : S_TEXT/UTF8
Codec ID/Info : UTF-8 Plain Text
Language : Russian
Default : No
Forced : No
Text #2
ID : 5
Format : UTF-8
Codec ID : S_TEXT/UTF8
Codec ID/Info : UTF-8 Plain Text
Language : Ukrainian
Default : No
Forced : No
Text #3
ID : 6
Format : UTF-8
Codec ID : S_TEXT/UTF8
Codec ID/Info : UTF-8 Plain Text
Language : English
Default : No
Forced : No
Menu
00:00:00.000 : en:00:00:00.000
00:03:27.958 : en:00:03:27.958
00:06:57.834 : en:00:06:57.834
00:08:19.541 : en:00:08:19.541
00:11:58.593 : en:00:11:58.593
00:15:01.484 : en:00:15:01.484
00:18:13.509 : en:00:18:13.509
00:19:56.737 : en:00:19:56.737
00:21:43.093 : en:00:21:43.093
00:23:53.849 : en:00:23:53.849
00:28:34.880 : en:00:28:34.880
00:31:32.516 : en:00:31:32.516
00:34:39.077 : en:00:34:39.077
00:40:51.199 : en:00:40:51.199
00:44:37.383 : en:00:44:37.383
00:46:57.815 : en:00:46:57.815
00:49:19.707 : en:00:49:19.707
00:54:13.333 : en:00:54:13.333
01:00:06.686 : en:01:00:06.686
01:03:16.209 : en:01:03:16.209
01:06:08.715 : en:01:06:08.715
01:12:56.998 : en:01:12:56.998
01:15:13.008 : en:01:15:13.008
01:19:54.456 : en:01:19:54.456
01:21:56.120 : en:01:21:56.120
01:27:24.156 : en:01:27:24.156
01:28:12.537 : en:01:28:12.537
01:33:28.561 : en:01:33:28.561
01:39:34.510 : en:01:39:34.510
01:46:26.714 : en:01:46:26.714
01:50:46.515 : en:01:50:46.515
01:56:40.619 : en:01:56:40.619
01:59:06.097 : en:01:59:06.097
02:02:23.127 : en:02:02:23.127
02:05:35.069 : en:02:05:35.069
02:12:30.818 : en:02:12:30.818
02:16:12.790 : en:02:16:12.790
02:19:56.930 : en:02:19:56.930
02:22:42.304 : en:02:22:42.304
02:24:15.647 : en:02:24:15.647

Скриншоты | Rip vs Source

Source
Сравнение с этим релизом
[Профиль] [ЛС]
Кто просматривает тему:

Форум Тема Автор Размер
Альтернативная история и наука BBC. Древние затерянные города. Исчезнувшая столица фараона / Lost Cities of the Ancients. The Vanished Capital of the Pharaoh (2006) HDTV [H.264/1080i-LQ] KottoSoft 2.43 GB
Viasat History Viasat History: Загадка исчезновения неандертальцев / Apocalypse Neanderthal [серии 1-2 из 2] (Jason Lavangie) [2015 г., Документально-постановочный, история, археология, SATRip] skorpionN 1.41 GB
Документальные HD В поисках исчезнувших великанов (сезон 1) / Search For The Lost Giants [2014, Познавательный, History Channel HD, HDTV 1080i] TorrentFilm 1.48 GB
Боевики, детективы, триллеры Гиллиан Флинн - Исчезнувшая (2016) MP3 Swager 1000 MB
Фильмы 2015 года Исчезающий иллюзионист / Dirk Ohm - Illusjonisten som forsvant (Бобби Пирс / Bobbie Peers) [2015, Норвегия, Драма, детектив, WEB-DLRip] MVO (Den904 & DeadSno и Datynet) TorrentFilm 1.46 GB
Зарубежные сериалы Исчезновение / Disparue [S01] (2015) WEB-DL 1080p | Первый канал достали все 14.51 GB
Зарубежные сериалы Исчезновение / Disparue [S01] (2015) WEB-DLRip от ExKinoRay | Первый канал Russian Mafia 5.46 GB
Фильмы (HD DVD, Blu-ray и BDRemux) Исчезновение / VANish (2015) BDRemux 1080p sergej644 15.91 GB
Показать сообщения:    

Текущее время: Сегодня 04:22

Часовой пояс: GMT



Вы не можете начинать темы
Вы не можете отвечать на сообщения
Вы не можете редактировать свои сообщения
Вы не можете удалять свои сообщения
Вы не можете голосовать в опросах
Вы не можете прикреплять файлы к сообщениям
Вы не можете скачивать файлы