Исчезнувшая империя (Карен Шахназаров) [2007, Россия, драма, Blu-ray disc 1080p]

 
Автор Сообщение

TorrentFilm ®

Пол:

Стаж: 2 года

Сообщений: 7741



Награды: Нет

Торрент-статистика

Создавать темы 01-Янв-2016 00:06

[Цитировать]

Исчезнувшая империя--Страна: Россия
Жанр: драма
Год выпуска: 2007
Продолжительность: 1:48:44--Перевод: Не требуется--Режиссер:
Карен Шахназаров
В ролях:
Егор Барановский (Степан Молодцов), Армен Джигарханян (дед Сергея и Миши), Владимир Ильин (Степан 30 лет спустя), Янина Калганова (Катя), Екатерина Каспарова, Иван Купреенко (Костя Денисов), Александр Ляпин (Сергей Нарбеков), Лидия Милюзина (Люда Белецкая), Велимир Русаков (Волокницкий), Василий Шахназаров (Миша), Ольга Тумайкина (мама Сергея), Татьяна Яковенко (мама Люды)--Описание:Действие фильма разворачивается в 70-е годы прошлого века в Москве. В центре сюжета классический любовный треугольник - два парня и девушка. Они учатся в одном институте, живут в одной большой стране, не подозревая о том, что уже совсем скоро она исчезнет со всех географических карт планеты. Картина о любви, о молодости, о стране под названием Советский Союз.--
kinopoisk-
Тип релиза: Blu-ray 1080p
Контейнер: BDMV
Video: MPEG-4 AVC Video / 16881 kbps / 1080p / 23,976 fps / 16:9 / High Profile 4.1
Audio: Russian / DTS-HD Master Audio / 5.1 / 48 kHz / 3354 kbps / 24-bit (DTS Core: 5.1 / 48 kHz / 1509 kbps / 24-bit)
Audio: Russian / Dolby Digital Audio / 5.1 / 48 kHz / 448 kbps
Audio: Russian / LPCM Audio / 2.0 / 48 kHz / 2304 kbps / 24-bit
Subtitle: English / 21,593 kbps
Subtitle: French / 22,728 kbps
Subtitle: German / 23,392 kbps
Subtitle: Russian / 23,609 kbps
Subtitle: Spanish / 21,341 kbpsрелиз от:
------------
Раздача от:

На диске

Фильмографии
Фильм о фильме
Сцены, не вошедшие в фильм

Скриншоты


Дополнительно

Цифровая обработка изображения.
Ремастеринг звука и авторинг - объединение «Крупный план».

BDinfo

Disc Title: I_E_HDCLUB
Disc Size: 23 015 169 812 bytes
Protection: AACS
BD-Java: No
BDInfo: 0.5.2
Notes:
BDINFO HOME AND REPORTS SUBMISSION:
Cinema Squid
http://www.cinemasquid.com/Tools.aspx
INCLUDES FORUMS REPORT FOR:
Unofficial Blu-ray Audio and Video Specifications Thread
http://www.avsforum.com/avs-vb/showthread.php?t=760714
http://forum.blu-ray.com/showthread.php?t=3338
********************
PLAYLIST: 00005.MPLS
********************
Total   Video
Title                                                           Codec   Length  Movie Size      Disc Size       Bitrate Bitrate Main Audio Track                          Secondary Audio Track
-----                                                           ------  ------- --------------  --------------  ------- ------- ------------------                        ---------------------
00005.MPLS                                                      AVC     1:48:44 19 975 741 440  23 015 169 812  24,49   16,88   DTS-HD Master 5.1 3354Kbps (48kHz/24-bit) DD AC3 5.1 448Kbps
DISC INFO:
Disc Title:     I_E_HDCLUB
Disc Size:      23 015 169 812 bytes
Protection:     AACS
BD-Java:        No
BDInfo:         0.5.2
PLAYLIST REPORT:
Name:                   00005.MPLS
Size:                   19 975 741 440 bytes
Length:                 1:48:44 (h:m:s)
Total Bitrate:          24,49 Mbps
Description:
VIDEO:
Codec                   Bitrate             Description
-----                   -------             -----------
MPEG-4 AVC Video        16881 kbps          1080p / 23,976 fps / 16:9 / High Profile 4.1
AUDIO:
Codec                           Language        Bitrate         Description
-----                           --------        -------         -----------
DTS-HD Master Audio             Russian         3354 kbps       5.1 / 48 kHz / 3354 kbps / 24-bit (DTS Core: 5.1 / 48 kHz / 1509 kbps / 24-bit)
Dolby Digital Audio             Russian         448 kbps        5.1 / 48 kHz / 448 kbps
LPCM Audio                      Russian         2304 kbps       2.0 / 48 kHz / 2304 kbps / 24-bit
SUBTITLES:
Codec                           Language        Bitrate         Description
-----                           --------        -------         -----------
Presentation Graphics           English         21,593 kbps
Presentation Graphics           French          22,728 kbps
Presentation Graphics           German          23,392 kbps
Presentation Graphics           Russian         23,609 kbps
Presentation Graphics           Spanish         21,341 kbps
FILES:
Name            Time In         Length          Size            Total Bitrate
----            -------         ------          ----            -------------
00007.M2TS      0:00:00.000     1:48:44.726     19 975 741 440  24 492
CHAPTERS:
Number          Time In         Length          Avg Video Rate  Max 1-Sec Rate  Max 1-Sec Time  Max 5-Sec Rate  Max 5-Sec Time  Max 10Sec Rate  Max 10Sec Time  Avg Frame Size  Max Frame Size  Max Frame Time
------          -------         ------          --------------  --------------  --------------  --------------  --------------  --------------  --------------  --------------  --------------  --------------
1               0:00:00.000     0:04:33.273     14 006 kbps     21 225 kbps     00:00:59.642    18 697 kbps     00:00:40.039    17 995 kbps     00:00:35.076    73 010 bytes    345 335 bytes   00:02:28.064
2               0:04:33.273     0:04:31.271     18 453 kbps     27 432 kbps     00:04:43.283    23 502 kbps     00:04:39.237    22 425 kbps     00:04:35.149    96 206 bytes    354 821 bytes   00:05:00.550
3               0:09:04.544     0:06:20.379     17 554 kbps     27 759 kbps     00:13:11.373    22 446 kbps     00:13:10.915    21 016 kbps     00:13:10.998    91 520 bytes    319 990 bytes   00:15:23.964
4               0:15:24.924     0:06:39.399     18 569 kbps     23 751 kbps     00:16:18.143    22 731 kbps     00:15:27.885    22 060 kbps     00:15:24.924    96 811 bytes    404 036 bytes   00:15:24.965
5               0:22:04.323     0:10:02.602     16 814 kbps     29 969 kbps     00:28:24.953    26 273 kbps     00:25:42.874    21 936 kbps     00:25:42.916    87 659 bytes    448 495 bytes   00:29:23.928
6               0:32:06.925     0:09:26.565     17 810 kbps     24 189 kbps     00:37:28.746    22 870 kbps     00:32:15.683    22 112 kbps     00:32:10.678    92 852 bytes    360 453 bytes   00:37:23.866
7               0:41:33.491     0:10:01.601     17 949 kbps     30 864 kbps     00:41:35.743    24 064 kbps     00:41:35.326    21 322 kbps     00:41:33.699    93 579 bytes    304 757 bytes   00:49:46.024
8               0:51:35.092     0:08:35.514     15 148 kbps     32 285 kbps     00:57:47.505    25 638 kbps     00:57:47.046    22 385 kbps     00:57:45.962    78 975 bytes    322 921 bytes   00:57:28.445
9               1:00:10.607     0:06:14.373     17 990 kbps     28 895 kbps     01:05:53.658    22 906 kbps     01:05:49.528    22 103 kbps     01:05:51.822    93 793 bytes    336 866 bytes   01:04:27.905
10              1:06:24.981     0:07:25.445     17 948 kbps     21 349 kbps     01:11:01.215    20 652 kbps     01:10:23.510    20 006 kbps     01:09:47.099    93 574 bytes    337 968 bytes   01:06:26.524
11              1:13:50.426     0:07:49.469     18 039 kbps     35 831 kbps     01:13:51.135    25 853 kbps     01:13:50.551    22 106 kbps     01:13:50.551    94 049 bytes    379 281 bytes   01:16:50.147
12              1:21:39.895     0:12:39.759     17 800 kbps     25 754 kbps     01:29:02.045    20 854 kbps     01:33:45.995    20 305 kbps     01:30:15.785    92 799 bytes    382 125 bytes   01:31:57.094
13              1:34:19.654     0:06:35.394     18 331 kbps     31 242 kbps     01:34:59.652    25 300 kbps     01:34:59.693    23 271 kbps     01:34:59.360    95 567 bytes    341 218 bytes   01:34:22.198
14              1:40:55.049     0:07:49.677     9 406 kbps      25 405 kbps     01:44:44.403    17 588 kbps     01:44:43.568    16 768 kbps     01:44:43.568    49 044 bytes    284 402 bytes   01:44:54.663
STREAM DIAGNOSTICS:
File            PID             Type            Codec           Language                Seconds                 Bitrate                 Bytes           Packets
----            ---             ----            -----           --------                --------------          --------------          -------------   -----
00007.M2TS      4113 (0x1011)   0x1B            AVC                                     6524,643                16 881                  13 768 118 324  74 918 169
00007.M2TS      4352 (0x1100)   0x86            DTS-HD MA       rus (Russian)           6524,643                3 354                   2 735 455 064   15 884 258
00007.M2TS      4353 (0x1101)   0x81            AC3             rus (Russian)           6524,643                448                     365 383 424     2 038 970
00007.M2TS      4354 (0x1102)   0x80            LPCM            rus (Russian)           6524,643                2 310                   1 884 329 028   10 439 496
00007.M2TS      4608 (0x1200)   0x90            PGS             rus (Russian)           6524,643                24                      19 254 990      111 485
00007.M2TS      4609 (0x1201)   0x90            PGS             eng (English)           6524,643                22                      17 611 072      102 616
00007.M2TS      4610 (0x1202)   0x90            PGS             deu (German)            6524,643                23                      19 078 436      112 796
00007.M2TS      4611 (0x1203)   0x90            PGS             fra (French)            6524,643                23                      18 536 822      110 195
00007.M2TS      4612 (0x1204)   0x90            PGS             spa (Spanish)           6524,643                21                      17 405 457      103 721
QUICK SUMMARY:
Disc Title: I_E_HDCLUB
Disc Size: 23 015 169 812 bytes
Protection: AACS
BD-Java: No
Playlist: 00005.MPLS
Size: 19 975 741 440 bytes
Length: 1:48:44
Total Bitrate: 24,49 Mbps
Video: MPEG-4 AVC Video / 16881 kbps / 1080p / 23,976 fps / 16:9 / High Profile 4.1
Audio: Russian / DTS-HD Master Audio / 5.1 / 48 kHz / 3354 kbps / 24-bit (DTS Core: 5.1 / 48 kHz / 1509 kbps / 24-bit)
Audio: Russian / Dolby Digital Audio / 5.1 / 48 kHz / 448 kbps
Audio: Russian / LPCM Audio / 2.0 / 48 kHz / 2304 kbps / 24-bit
Subtitle: English / 21,593 kbps
Subtitle: French / 22,728 kbps
Subtitle: German / 23,392 kbps
Subtitle: Russian / 23,609 kbps
Subtitle: Spanish / 21,341 kbps
********************
PLAYLIST: 00003.MPLS
********************
Total   Video
Title                                                           Codec   Length  Movie Size      Disc Size       Bitrate Bitrate Main Audio Track                          Secondary Audio Track
-----                                                           ------  ------- --------------  --------------  ------- ------- ------------------                        ---------------------
00003.MPLS                                                      MPEG-2  0:28:40 1 447 563 264   23 015 169 812  6,73    5,00    DD AC3 2.0 448Kbps
DISC INFO:
Disc Title:     I_E_HDCLUB
Disc Size:      23 015 169 812 bytes
Protection:     AACS
BD-Java:        No
BDInfo:         0.5.2
PLAYLIST REPORT:
Name:                   00003.MPLS
Size:                   1 447 563 264 bytes
Length:                 0:28:40 (h:m:s)
Total Bitrate:          6,73 Mbps
Description:
VIDEO:
Codec                   Bitrate             Description
-----                   -------             -----------
MPEG-2 Video            4998 kbps           576i / 25 fps / 16:9
AUDIO:
Codec                           Language        Bitrate         Description
-----                           --------        -------         -----------
Dolby Digital Audio             Russian         448 kbps        2.0 / 48 kHz / 448 kbps
Dolby Digital Audio             Russian         448 kbps        2.0 / 48 kHz / 448 kbps
Dolby Digital Audio             Russian         448 kbps        2.0 / 48 kHz / 448 kbps
FILES:
Name            Time In         Length          Size            Total Bitrate
----            -------         ------          ----            -------------
00009.M2TS      0:00:00.000     0:28:40.920     1 447 563 264   6 729
CHAPTERS:
Number          Time In         Length          Avg Video Rate  Max 1-Sec Rate  Max 1-Sec Time  Max 5-Sec Rate  Max 5-Sec Time  Max 10Sec Rate  Max 10Sec Time  Avg Frame Size  Max Frame Size  Max Frame Time
------          -------         ------          --------------  --------------  --------------  --------------  --------------  --------------  --------------  --------------  --------------  --------------
1               0:00:00.000     0:28:40.920     4 998 kbps      8 170 kbps      00:00:14.840    6 415 kbps      00:00:14.720    6 018 kbps      00:13:13.520    24 989 bytes    102 144 bytes   00:00:17.279
STREAM DIAGNOSTICS:
File            PID             Type            Codec           Language                Seconds                 Bitrate                 Bytes           Packets
----            ---             ----            -----           --------                --------------          --------------          -------------   -----
00009.M2TS      4113 (0x1011)   0x02            MPEG-2                                  1720,800                4 998                   1 075 103 884   5 868 379
00009.M2TS      4352 (0x1100)   0x81            AC3             rus (Russian)           1720,800                448                     96 370 176      537 780
00009.M2TS      4353 (0x1101)   0x81            AC3             rus (Russian)           1720,800                448                     96 370 176      537 780
00009.M2TS      4354 (0x1102)   0x81            AC3             rus (Russian)           1720,800                448                     96 370 176      537 780
QUICK SUMMARY:
Disc Title: I_E_HDCLUB
Disc Size: 23 015 169 812 bytes
Protection: AACS
BD-Java: No
Playlist: 00003.MPLS
Size: 1 447 563 264 bytes
Length: 0:28:40
Total Bitrate: 6,73 Mbps
Video: MPEG-2 Video / 4998 kbps / 576i / 25 fps / 16:9
Audio: Russian / Dolby Digital Audio / 2.0 / 48 kHz / 448 kbps
Audio: Russian / Dolby Digital Audio / 2.0 / 48 kHz / 448 kbps
Audio: Russian / Dolby Digital Audio / 2.0 / 48 kHz / 448 kbps
********************
PLAYLIST: 00004.MPLS
********************
Total   Video
Title                                                           Codec   Length  Movie Size      Disc Size       Bitrate Bitrate Main Audio Track                          Secondary Audio Track
-----                                                           ------  ------- --------------  --------------  ------- ------- ------------------                        ---------------------
00004.MPLS                                                      MPEG-2  0:11:34 583 759 872     23 015 169 812  6,72    4,99    DD AC3 2.0 448Kbps
DISC INFO:
Disc Title:     I_E_HDCLUB
Disc Size:      23 015 169 812 bytes
Protection:     AACS
BD-Java:        No
BDInfo:         0.5.2
PLAYLIST REPORT:
Name:                   00004.MPLS
Size:                   583 759 872 bytes
Length:                 0:11:34 (h:m:s)
Total Bitrate:          6,72 Mbps
Description:
VIDEO:
Codec                   Bitrate             Description
-----                   -------             -----------
MPEG-2 Video            4993 kbps           576i / 25 fps / 16:9
AUDIO:
Codec                           Language        Bitrate         Description
-----                           --------        -------         -----------
Dolby Digital Audio             Russian         448 kbps        2.0 / 48 kHz / 448 kbps
Dolby Digital Audio             Russian         448 kbps        2.0 / 48 kHz / 448 kbps
Dolby Digital Audio             Russian         448 kbps        2.0 / 48 kHz / 448 kbps
FILES:
Name            Time In         Length          Size            Total Bitrate
----            -------         ------          ----            -------------
00010.M2TS      0:00:00.000     0:11:34.440     583 759 872     6 725
CHAPTERS:
Number          Time In         Length          Avg Video Rate  Max 1-Sec Rate  Max 1-Sec Time  Max 5-Sec Rate  Max 5-Sec Time  Max 10Sec Rate  Max 10Sec Time  Avg Frame Size  Max Frame Size  Max Frame Time
------          -------         ------          --------------  --------------  --------------  --------------  --------------  --------------  --------------  --------------  --------------  --------------
1               0:00:00.000     0:11:34.440     4 993 kbps      8 260 kbps      00:06:33.080    6 269 kbps      00:06:32.919    5 645 kbps      00:06:32.680    24 967 bytes    102 144 bytes   00:00:15.360
STREAM DIAGNOSTICS:
File            PID             Type            Codec           Language                Seconds                 Bitrate                 Bytes           Packets
----            ---             ----            -----           --------                --------------          --------------          -------------   -----
00010.M2TS      4113 (0x1011)   0x02            MPEG-2                                  694,320                 4 994                   433 455 450     2 366 080
00010.M2TS      4352 (0x1100)   0x81            AC3             rus (Russian)           694,320                 448                     38 888 192      217 010
00010.M2TS      4353 (0x1101)   0x81            AC3             rus (Russian)           694,320                 448                     38 888 192      217 010
00010.M2TS      4354 (0x1102)   0x81            AC3             rus (Russian)           694,320                 448                     38 888 192      217 010
QUICK SUMMARY:
Disc Title: I_E_HDCLUB
Disc Size: 23 015 169 812 bytes
Protection: AACS
BD-Java: No
Playlist: 00004.MPLS
Size: 583 759 872 bytes
Length: 0:11:34
Total Bitrate: 6,72 Mbps
Video: MPEG-2 Video / 4993 kbps / 576i / 25 fps / 16:9
Audio: Russian / Dolby Digital Audio / 2.0 / 48 kHz / 448 kbps
Audio: Russian / Dolby Digital Audio / 2.0 / 48 kHz / 448 kbps
Audio: Russian / Dolby Digital Audio / 2.0 / 48 kHz / 448 kbps
********************
PLAYLIST: 00002.MPLS
********************
Total   Video
Title                                                           Codec   Length  Movie Size      Disc Size       Bitrate Bitrate Main Audio Track                          Secondary Audio Track
-----                                                           ------  ------- --------------  --------------  ------- ------- ------------------                        ---------------------
00002.MPLS                                                      VC-1    0:04:40 588 613 632     23 015 169 812  16,80   14,65   DD AC3 2.0 448Kbps
DISC INFO:
Disc Title:     I_E_HDCLUB
Disc Size:      23 015 169 812 bytes
Protection:     AACS
BD-Java:        No
BDInfo:         0.5.2
PLAYLIST REPORT:
Name:                   00002.MPLS
Size:                   588 613 632 bytes
Length:                 0:04:40 (h:m:s)
Total Bitrate:          16,80 Mbps
Description:
VIDEO:
Codec                   Bitrate             Description
-----                   -------             -----------
VC-1 Video              14651 kbps          1080p / 23,976 fps / 16:9 / Advanced Profile 3
AUDIO:
Codec                           Language        Bitrate         Description
-----                           --------        -------         -----------
Dolby Digital Audio             Russian         448 kbps        2.0 / 48 kHz / 448 kbps
Dolby Digital Audio             Russian         448 kbps        2.0 / 48 kHz / 448 kbps
Dolby Digital Audio             Russian         448 kbps        2.0 / 48 kHz / 448 kbps
FILES:
Name            Time In         Length          Size            Total Bitrate
----            -------         ------          ----            -------------
00004.M2TS      0:00:00.000     0:04:40.279     588 613 632     16 801
CHAPTERS:
Number          Time In         Length          Avg Video Rate  Max 1-Sec Rate  Max 1-Sec Time  Max 5-Sec Rate  Max 5-Sec Time  Max 10Sec Rate  Max 10Sec Time  Avg Frame Size  Max Frame Size  Max Frame Time
------          -------         ------          --------------  --------------  --------------  --------------  --------------  --------------  --------------  --------------  --------------  --------------
1               0:00:00.000     0:02:09.129     13 462 kbps     23 677 kbps     00:00:08.800    20 667 kbps     00:00:08.216    18 763 kbps     00:00:08.216    70 160 bytes    446 436 bytes   00:00:06.756
2               0:02:09.129     0:01:04.063     15 346 kbps     24 532 kbps     00:02:16.594    21 560 kbps     00:02:16.302    20 331 kbps     00:02:16.010    80 008 bytes    418 367 bytes   00:02:09.295
3               0:03:13.192     0:00:28.028     11 841 kbps     16 466 kbps     00:03:19.240    14 509 kbps     00:03:19.240    13 829 kbps     00:03:19.240    61 733 bytes    394 285 bytes   00:03:41.221
4               0:03:41.221     0:00:59.058     17 833 kbps     28 864 kbps     00:04:00.698    24 746 kbps     00:03:58.446    23 842 kbps     00:03:53.942    93 107 bytes    437 923 bytes   00:04:00.740
STREAM DIAGNOSTICS:
File            PID             Type            Codec           Language                Seconds                 Bitrate                 Bytes           Packets
----            ---             ----            -----           --------                --------------          --------------          -------------   -----
00004.M2TS      4113 (0x1011)   0xEA            VC-1                                    280,197                 14 656                  513 313 911     2 793 788
00004.M2TS      4352 (0x1100)   0x81            AC3             rus (Russian)           280,197                 448                     15 680 000      87 500
00004.M2TS      4353 (0x1101)   0x81            AC3             rus (Russian)           280,197                 448                     15 680 000      87 500
00004.M2TS      4354 (0x1102)   0x81            AC3             rus (Russian)           280,197                 448                     15 680 000      87 500
QUICK SUMMARY:
Disc Title: I_E_HDCLUB
Disc Size: 23 015 169 812 bytes
Protection: AACS
BD-Java: No
Playlist: 00002.MPLS
Size: 588 613 632 bytes
Length: 0:04:40
Total Bitrate: 16,80 Mbps
Video: VC-1 Video / 14651 kbps / 1080p / 23,976 fps / 16:9 / Advanced Profile 3
Audio: Russian / Dolby Digital Audio / 2.0 / 48 kHz / 448 kbps
Audio: Russian / Dolby Digital Audio / 2.0 / 48 kHz / 448 kbps
Audio: Russian / Dolby Digital Audio / 2.0 / 48 kHz / 448 kbps
********************
PLAYLIST: 00000.MPLS
********************
Total   Video
Title                                                           Codec   Length  Movie Size      Disc Size       Bitrate Bitrate Main Audio Track                          Secondary Audio Track
-----                                                           ------  ------- --------------  --------------  ------- ------- ------------------                        ---------------------
00000.MPLS                                                      AVC     0:00:51 108 601 344     23 015 169 812  16,88   15,19   LPCM 2.0 2304Kbps (48kHz/24-bit)
DISC INFO:
Disc Title:     I_E_HDCLUB
Disc Size:      23 015 169 812 bytes
Protection:     AACS
BD-Java:        No
BDInfo:         0.5.2
PLAYLIST REPORT:
Name:                   00000.MPLS
Size:                   108 601 344 bytes
Length:                 0:00:51 (h:m:s)
Total Bitrate:          16,88 Mbps
Description:
VIDEO:
Codec                   Bitrate             Description
-----                   -------             -----------
MPEG-4 AVC Video        15191 kbps          1080p / 23,976 fps / 16:9 / High Profile 4.1
AUDIO:
Codec                           Language        Bitrate         Description
-----                           --------        -------         -----------
LPCM Audio                      English         2304 kbps       2.0 / 48 kHz / 2304 kbps / 24-bit
FILES:
Name            Time In         Length          Size            Total Bitrate
----            -------         ------          ----            -------------
00000.M2TS      0:00:00.000     0:00:20.603     41 834 496      16 243
00001.M2TS      0:00:20.603     0:00:20.854     64 905 216      24 899
00008.M2TS      0:00:41.458     0:00:10.009     1 861 632       1 488
CHAPTERS:
Number          Time In         Length          Avg Video Rate  Max 1-Sec Rate  Max 1-Sec Time  Max 5-Sec Rate  Max 5-Sec Time  Max 10Sec Rate  Max 10Sec Time  Avg Frame Size  Max Frame Size  Max Frame Time
------          -------         ------          --------------  --------------  --------------  --------------  --------------  --------------  --------------  --------------  --------------  --------------
1               0:00:00.000     0:00:51.468     15 191 kbps     46 288 kbps     00:00:31.030    40 483 kbps     00:00:28.194    32 693 kbps     00:00:25.608    79 197 bytes    545 123 bytes   00:00:02.252
STREAM DIAGNOSTICS:
File            PID             Type            Codec           Language                Seconds                 Bitrate                 Bytes           Packets
----            ---             ----            -----           --------                --------------          --------------          -------------   -----
00000.M2TS      4113 (0x1011)   0x1B            AVC                                     20,521                  15 558                  39 907 555      217 186
00001.M2TS      4113 (0x1011)   0x1B            AVC                                     20,729                  21 664                  56 133 865      305 377
00001.M2TS      4352 (0x1100)   0x80            LPCM            eng (English)           20,729                  2 226                   5 767 336       31 952
00008.M2TS      4113 (0x1011)   0x1B            AVC                                     9,843                   1 372                   1 688 229       9 348
QUICK SUMMARY:
Disc Title: I_E_HDCLUB
Disc Size: 23 015 169 812 bytes
Protection: AACS
BD-Java: No
Playlist: 00000.MPLS
Size: 108 601 344 bytes
Length: 0:00:51
Total Bitrate: 16,88 Mbps
Video: MPEG-4 AVC Video / 15191 kbps / 1080p / 23,976 fps / 16:9 / High Profile 4.1
Audio: English / LPCM Audio / 2.0 / 48 kHz / 2304 kbps / 24-bit
[Профиль] [ЛС]
Кто просматривает тему:

Форум Тема Автор Размер
Альтернативная история и наука BBC. Древние затерянные города. Исчезнувшая столица фараона / Lost Cities of the Ancients. The Vanished Capital of the Pharaoh (2006) HDTV [H.264/1080i-LQ] KottoSoft 2.43 GB
Viasat History Viasat History: Загадка исчезновения неандертальцев / Apocalypse Neanderthal [серии 1-2 из 2] (Jason Lavangie) [2015 г., Документально-постановочный, история, археология, SATRip] skorpionN 1.41 GB
Документальные HD В поисках исчезнувших великанов (сезон 1) / Search For The Lost Giants [2014, Познавательный, History Channel HD, HDTV 1080i] TorrentFilm 1.48 GB
Боевики, детективы, триллеры Гиллиан Флинн - Исчезнувшая (2016) MP3 Swager 1000 MB
Фильмы 2015 года Исчезающий иллюзионист / Dirk Ohm - Illusjonisten som forsvant (Бобби Пирс / Bobbie Peers) [2015, Норвегия, Драма, детектив, WEB-DLRip] MVO (Den904 & DeadSno и Datynet) TorrentFilm 1.46 GB
Зарубежные сериалы Исчезновение / Disparue [S01] (2015) WEB-DL 1080p | Первый канал достали все 14.51 GB
Зарубежные сериалы Исчезновение / Disparue [S01] (2015) WEB-DLRip от ExKinoRay | Первый канал Russian Mafia 5.46 GB
Фильмы (HD DVD, Blu-ray и BDRemux) Исчезновение / VANish (2015) BDRemux 1080p sergej644 15.91 GB
Показать сообщения:    

Текущее время: Сегодня 12:30

Часовой пояс: GMT



Вы не можете начинать темы
Вы не можете отвечать на сообщения
Вы не можете редактировать свои сообщения
Вы не можете удалять свои сообщения
Вы не можете голосовать в опросах
Вы не можете прикреплять файлы к сообщениям
Вы не можете скачивать файлы