Исчезновение / VANish (Брайан Бокбрейдер / Bryan Bockbrader) [2015, США, Ужасы, Боевик, Триллер, HDRip] VO (R.A.I.M)

 
Автор Сообщение

TorrentFilm ®

Пол:

Стаж: 2 года

Сообщений: 7741



Награды: Нет

Торрент-статистика

Создавать темы 12-Фев-2015 00:15

[Цитировать]

Исчезновение / VANish
Страна: США
Жанр: Ужасы, Боевик, Триллер
Год выпуска: 2015
Продолжительность: 01:19:17
Перевод: Одноголосый закадровый R.A.I.M
Cубтитры: нет
Режиссер: Брайан Бокбрейдер / Bryan Bockbrader
В ролях: Майра Уолш, Тони Тодд, Дэнни Трехо, Брайан Бокбрейдер, Адам Гатри, Денис Дорадо, Эсперанса Диас, Анджела Робитейлл, Джо Дэвис, Майкл Мендоза
Описание: Похищенная молодая девушка едет в фургоне с полными отморозками. Парни даже и не предполагали что вот так всё обернется, узнав что эта девушка дочь мексиканского наркобарона.
Сэмпл: http://multi-up.com/1032315
Присутствует ненормативная лексика
Качество видео: HDRip
Формат видео: AVI
Видео: 688x288 (2.39:1), 23.976 fps, XviD build 73 ~1177 kbps avg, 0.25 bit/pixel
Аудио: 48 kHz, MPEG Layer 3, 2 ch, ~128.00 kbps avg

MediaInfo

Формат : AVI
Формат/Информация : Audio Video Interleave
Размер файла : 746 Мбайт
Продолжительность : 1 ч. 19 м.
Общий поток : 1315 Кбит/сек
Программа кодирования : VirtualDubMod 1.5.10.3 | www.virtualdub-fr.org || (build 2550/release)
Библиотека кодирования : VirtualDubMod build 2550/release
Видео
Идентификатор : 0
Формат : MPEG-4 Visual
Профиль формата : Advanced Simple@L5
Параметр BVOP формата : 1
Параметр QPel формата : Нет
Параметр GMC формата : Без точки перехода
Параметр матрицы формата : Выборочная
Идентификатор кодека : XVID
Идентификатор кодека/Подсказка : XviD
Продолжительность : 1 ч. 19 м.
Битрейт : 1178 Кбит/сек
Ширина : 688 пикселей
Высота : 288 пикселей
Соотношение сторон : 2,40:1
Частота кадров : 23,976 кадра/сек
Цветовое пространство : YUV
Субдискретизация насыщенности : 4:2:0
Битовая глубина : 8 бит
Тип развёртки : Прогрессивная
Метод сжатия : С потерями
Бит/(Пиксели*Кадры) : 0.248
Размер потока : 668 Мбайт (90%)
Библиотека кодирования : XviD 73
Аудио
Идентификатор : 1
Формат : MPEG Audio
Версия формата : Version 1
Профиль формата : Layer 3
Идентификатор кодека : 55
Идентификатор кодека/Подсказка : MP3
Продолжительность : 1 ч. 19 м.
Вид битрейта : Постоянный
Битрейт : 128 Кбит/сек
Каналы : 2 канала
Частота : 48,0 КГц
Метод сжатия : С потерями
Размер потока : 72,6 Мбайт (10%)
Выравнивание : Соединение по промежуткам
Продолжительность промежутка : 42 мс. (1,00 видеокадр)
Время предзагрузки промежутка : 504 мс.
Библиотека кодирования : LAME3.99r
Настройки программы : -m s -V 4 -q 2 -lowpass 17 -b 128

Скриншоты

Сравнение

http://torrentfilm.net/forum/viewtopic.php?t=4935200
Аудио: 48 kHz, AC3 Dolby Digital, 2/0 (L,R) ch, ~128.00 kbps avg
конкурента первые


[Профиль] [ЛС]
Кто просматривает тему:

Форум Тема Автор Размер
Альтернативная история и наука BBC. Древние затерянные города. Исчезнувшая столица фараона / Lost Cities of the Ancients. The Vanished Capital of the Pharaoh (2006) HDTV [H.264/1080i-LQ] KottoSoft 2.43 GB
Viasat History Viasat History: Загадка исчезновения неандертальцев / Apocalypse Neanderthal [серии 1-2 из 2] (Jason Lavangie) [2015 г., Документально-постановочный, история, археология, SATRip] skorpionN 1.41 GB
Документальные HD В поисках исчезнувших великанов (сезон 1) / Search For The Lost Giants [2014, Познавательный, History Channel HD, HDTV 1080i] TorrentFilm 1.48 GB
Боевики, детективы, триллеры Гиллиан Флинн - Исчезнувшая (2016) MP3 Swager 1000 MB
Фильмы 2015 года Исчезающий иллюзионист / Dirk Ohm - Illusjonisten som forsvant (Бобби Пирс / Bobbie Peers) [2015, Норвегия, Драма, детектив, WEB-DLRip] MVO (Den904 & DeadSno и Datynet) TorrentFilm 1.46 GB
Зарубежные сериалы Исчезновение / Disparue [S01] (2015) WEB-DL 1080p | Первый канал достали все 14.51 GB
Зарубежные сериалы Исчезновение / Disparue [S01] (2015) WEB-DLRip от ExKinoRay | Первый канал Russian Mafia 5.46 GB
Фильмы (HD DVD, Blu-ray и BDRemux) Исчезновение / VANish (2015) BDRemux 1080p sergej644 15.91 GB
Показать сообщения:    

Текущее время: Сегодня 13:46

Часовой пояс: GMT



Вы не можете начинать темы
Вы не можете отвечать на сообщения
Вы не можете редактировать свои сообщения
Вы не можете удалять свои сообщения
Вы не можете голосовать в опросах
Вы не можете прикреплять файлы к сообщениям
Вы не можете скачивать файлы