Исцеление / De Behandeling / The Treatment (Ганс (Ханс) Херботс / Hans Herbots) [2014, Бельгия, Триллер, драма, DVDRip] VO + Sub Rus

 
Автор Сообщение

Создавать темы 14-Июл-2014 09:07

Исцеление / De Behandeling / The Treatment
Страна: Бельгия
Жанр: Триллер, драма
Год выпуска: 2014
Продолжительность: 02:05:25
Перевод: Любительский (одноголосый) xixidok по субтитрам Gordana75 и creo140
Cубтитры: русские:Gordana75 и creo140 (внешние)
Оригинальная аудиодорожка: голландский
Режиссер: Ганс (Ханс) Херботс / Hans Herbots
В ролях: Герт Ван Рампелберг, Ина Жер, Йохан ван Ассхе, Лаура Верлинден, Ингрид де Вос, Патриция Берти
Описание: Старшему инспектору полиции Нику Kафмейеру приходится расследовать исчезновение, а потом убийство мальчика, ставшего жертвой изнасилования. При этом, сложившиеся обстоятельства, напоминают Нику о пропаже в детстве его младшего брата Бьорна, чья судьба до сих пор не выяснена. Ему предлагается на выбор узнать всё о Бьорне или поймать маньяка...
Доп. информация: http://www.imdb.com/title/tt3089778/
http://www.kinopoisk.ru/film/789350/
Сэмпл: http://multi-up.com/980843
Качество видео: DVDRip
Формат видео: AVI
Видео: Xvid 720x304, 25fps, 1 474 Kbps
Аудио: 44.1 KHz, MPEG Audio, Русский (MP3, 2 ch, 192 Кбит/с)

MediaInfo

Format : AVI
Format/Info : Audio Video Interleave
File size : 1.53 GiB
Duration : 2h 5mn
Overall bit rate : 1 744 Kbps
Writing library : VirtualDub build 32842/release
Video
ID : 0
Format : MPEG-4 Visual
Codec ID : XVID
Codec ID/Hint : XviD
Duration : 2h 5mn
Bit rate : 1 474 Kbps
Width : 720 pixels
Height : 304 pixels
Display aspect ratio : 2.35:1
Frame rate : 25.000 fps
Color space : YUV
Chroma subsampling : 4:2:0
Compression mode : Lossy
Bits/(Pixel*Frame) : 0.269
Stream size : 1.29 GiB (85%)
Audio
ID : 1
Format : MPEG Audio
Codec ID : 55
Codec ID/Hint : MP3
Duration : 2h 5mn
Bit rate : 192 Kbps
Channel count : 2 channels
Sampling rate : 44.1 KHz
Compression mode : Lossy
Stream size : 172 MiB (11%)
Alignment : Aligned on interleaves

Скриншот c названием фильма

 
Показать сообщения:    

Текущее время: Сегодня 12:52

Часовой пояс: GMT



Вы не можете начинать темы
Вы не можете отвечать на сообщения
Вы не можете редактировать свои сообщения
Вы не можете удалять свои сообщения
Вы не можете голосовать в опросах
Вы не можете прикреплять файлы к сообщениям
Вы не можете скачивать файлы