Исцеление / De Behandeling / The Treatment (Ханс Херботс / Hans Herbots) [2014, Бельгия, триллер, HDRip] VO (Xixidok)

 
Автор Сообщение

Создавать темы 14-Июл-2014 09:07

Исцеление / De Behandeling / The Treatment
Страна: Бельгия
Жанр: триллер
Год выпуска: 2014
Продолжительность: 02:10:53
Перевод: Одноголосый закадровый Xixidok по субтитрам Gordana75 и creo140
Cубтитры: нет
Оригинальная аудиодорожка: нет
Режиссер: Ханс Херботс / Hans Herbots
В ролях: Герт Ван Рампелберг, Ина Жер, Йохан ван Ассхе, Лаура Верлинден, Ингрид де Вос, Патриция Берти, Эмма Кристин, Брит Ван Хуф, Доминик Ван Малдер, Тибо Ванденборре
Описание: Фильм является экранизацией одноименного романа Мо Хайдера. Старшему инспектору полиции Нику Хафмейеру приходится расследовать исчезновение, а потом убийство мальчика, ставшего жертвой изнасилования. При этом, сложившиеся обстоятельства, напоминают Нику о пропаже в детстве его младшего брата Бьорна, чья судьба до сих пор не выяснена. Ему предлагается на выбор узнать всё о Бьорне или поймать маньяка...
Доп. информация:
Kinopoisk
IMDB
Сэмпл: http://multi-up.com/980573
Качество видео: HDRip
Формат видео: AVI
Видео: 720x304 (2.37:1), 23.976 fps, XviD build 50 ~1390 kbps avg, 0.27 bit/pixel
Аудио: 48 kHz, AC3 Dolby Digital, 2/0 (L,R) ch, ~192 kbps

MediaInfo

General
Complete name : D:\Iscelenie.2014.HDRip.avi
Format : AVI
Format/Info : Audio Video Interleave
File size : 1.46 GiB
Duration : 2h 10mn
Overall bit rate : 1 592 Kbps
Writing application : VirtualDubMod 1.5.10.3 | www.virtualdub-fr.org || (build 2550/release)
Writing library : VirtualDubMod build 2550/release
Video
ID : 0
Format : MPEG-4 Visual
Format profile : Advanced Simple@L5
Format settings, BVOP : Yes
Format settings, QPel : No
Format settings, GMC : No warppoints
Format settings, Matrix : Custom
Codec ID : XVID
Codec ID/Hint : XviD
Duration : 2h 10mn
Bit rate : 1 391 Kbps
Width : 720 pixels
Height : 304 pixels
Display aspect ratio : 2.35:1
Frame rate : 23.976 fps
Color space : YUV
Chroma subsampling : 4:2:0
Bit depth : 8 bits
Scan type : Progressive
Compression mode : Lossy
Bits/(Pixel*Frame) : 0.265
Stream size : 1.27 GiB (87%)
Writing library : XviD 1.2.1 (UTC 2008-12-04)
Audio
ID : 1
Format : AC-3
Format/Info : Audio Coding 3
Mode extension : CM (complete main)
Format settings, Endianness : Big
Codec ID : 2000
Duration : 2h 10mn
Bit rate mode : Constant
Bit rate : 192 Kbps
Channel count : 2 channels
Channel positions : Front: L R
Sampling rate : 48.0 KHz
Bit depth : 16 bits
Compression mode : Lossy
Stream size : 180 MiB (12%)
Alignment : Split accross interleaves
Interleave, duration : 42 ms (1.00 video frame)
Interleave, preload duration : 500 ms

Скриншот c названием фильма

Скриншоты

 
Показать сообщения:    

Текущее время: Сегодня 00:49

Часовой пояс: GMT



Вы не можете начинать темы
Вы не можете отвечать на сообщения
Вы не можете редактировать свои сообщения
Вы не можете удалять свои сообщения
Вы не можете голосовать в опросах
Вы не можете прикреплять файлы к сообщениям
Вы не можете скачивать файлы