Исходный код / Source Code (2011) BDRip 1080p от MediaClub | D, A, P1

 
Автор Сообщение

sergej644 ®

Пол:

Стаж: 4 года 11 месяцев

Сообщений: 6038

Откуда: Soviet Union



Награды: Нет

Торрент-статистика

Создавать темы 18-Окт-2014 19:46

[Цитировать]

Информация о фильме
Название: Исходный код
Оригинальное название: Source Code
Год выхода: 2011
Жанр: Фантастика, боевик, триллер, драма
Режиссер: Дункан Джонс
В ролях: Джейк Джилленхол, Мишель Монахэн, Вера Фармига, Джеффри Райт, Расселл Питерс, Джеймс А. Вудс, Майкл Арден, Кас Анвар, Джо Кобден, Брент Скэгфорд, Крэйг Томас, Гордон Мастен, Сьюзэн Бэйн, Паула Жан Хиксон, Линкольн Уорд, Кайл Гейтхаус, Альберт Кван, Энн Дэй-Джонс, Клариса Бирн, Мэтт Холлэнд, Фредерик Де Гранпре, Скотт Бакула, Лаура Этвуд, Райнальд Лапьер, Сэмюэл Медоуз
О фильме:
В фантастическом боевике «Исходный код» жизнь преподнесла странный сюрприз обыкновенному солдату. Каким-то загадочным образом, он оказывается в теле другого человека. Но это еще не самое страшное. Он снова и снова переживает взрыв, который приносит ему страшные страдания. Раз за разом главный герой картины «Исходный код» будет возвращаться в одну и ту же точку,и каждый раз у него будет лишь 8 минут до чудовищного взрыва поезда. Чтобы вырваться из этого замкнутого круга, ему нужно вычислить террориста, а заодно осознать до конца, что произошло с ним самим.

Страна: США
Студия: Франция, Mark Gordon Company, The Vendome Pictures
Продолжительность: 01:33:13
Перевод: Дублированный, авторский, профессиональный одноголосый
Кодек: x264
Качество: BDRip 1080p
Видео: MPEG-4 AVC, 12.5 Мбит/с, 1920x1080, 23.976 кадр/с
Звук:
Аудио #1: Русский (AC3, 6 ch, 640 Кбит/с) / Дублированный (Blu-ray, RUS)
Аудио #2: Русский (DTS, 6 ch, 1510 Кбит/с) / Авторский одноголосый (А.Гаврилов)
Аудио #3: Русский (DTS, 6 ch, 1510 Кбит/с) / Профессиональный одноголосый (А. Дасевич)
Аудио #4: Украинский (DTS, 6 ch, 1510 Кбит/с) / Дублированный
Аудио #5: Украинский (AC3, 2 ch, 192 Кбит/с) / Профессиональный многоголосый (1+1)
Аудио #6: Английский (DTS, 6 ch, 1510 Кбит/c)
Субтитры: Русские (Voronine: Full, SDH), английские (Full, SDH)
Семпл

О релизе

• За исходник Blu-Ray Remux спасибо: HDclub - sergey_n
• За исправленный русский дубляж большое спасибо Sergesha. В правом канале в двух кусках повышена громкость на 5,6 ДБ. В LFE канале скомпрессирован звук, т.к. пики в 0 Дб выходили. Сделан по пикам в -6 Дб, что бы саб не захлёбывался.
• За дорогу Гаврилова большое спасибо Прагматик-у.. Спонсоры появления перевода: Джосс, dunhill200, lexal2002, Chistobaev, therox, LAVR, SavineX, Pain_70, pestel, feldeger, shitman82, эвоки, gemini, _int_, edsz, audiolubitel, creata, jorn.vv, maximus10-99, Letyoha3, LEMKE, zetrob, Kampfer161, друг feldeger, MiG@s, xcoma, Tehnar71.
• Сохранены оригинальные чаптеры как на Blu-ray.

log x264

raw [info]: 1920x1080p 1:1 @ 24000/1001 fps (cfr)
x264 [info]: using SAR=1/1
x264 [info]: using cpu capabilities: MMX2 SSE2Fast SSSE3 SSE4.2 AVX AVX2 FMA3 LZCNT BMI2
x264 [info]: profile High, level 4.1
x264 [info]: frame I:957 Avg QP:16.83 size:263656
x264 [info]: frame P:33620 Avg QP:19.41 size:110319
x264 [info]: frame B:99511 Avg QP:22.01 size: 48022
x264 [info]: consecutive B-frames: 2.7% 8.6% 4.5% 41.8% 11.7% 12.6% 7.7% 9.9% 0.5%
x264 [info]: mb I I16..4: 5.4% 83.4% 11.2%
x264 [info]: mb P I16..4: 1.5% 23.4% 0.6% P16..4: 29.2% 33.3% 9.4% 0.9% 0.0% skip: 1.6%
x264 [info]: mb B I16..4: 0.1% 2.4% 0.0% B16..8: 46.3% 20.8% 3.9% direct: 5.3% skip:21.0% L0:49.0% L1:41.4% BI: 9.5%
x264 [info]: 8x8 transform intra:91.2% inter:68.5%
x264 [info]: direct mvs spatial:97.3% temporal:2.7%
x264 [info]: coded y,uvDC,uvAC intra: 87.5% 84.8% 63.2% inter: 33.9% 30.5% 8.7%
x264 [info]: i16 v,h,dc,p: 46% 14% 9% 32%
x264 [info]: i8 v,h,dc,ddl,ddr,vr,hd,vl,hu: 8% 7% 20% 10% 12% 10% 11% 10% 13%
x264 [info]: i4 v,h,dc,ddl,ddr,vr,hd,vl,hu: 15% 11% 8% 8% 12% 12% 12% 9% 12%
x264 [info]: i8c dc,h,v,p: 50% 21% 14% 15%
x264 [info]: Weighted P-Frames: Y:10.3% UV:6.5%
x264 [info]: ref P L0: 53.2% 7.1% 26.7% 11.8% 1.1% 0.1%
x264 [info]: ref B L0: 89.2% 8.8% 1.9%
x264 [info]: ref B L1: 94.1% 5.9%
x264 [info]: kb/s:12502.20
encoded 134088 frames, 1.12 fps, 12502.20 kb/s

MI

General
Unique ID : 229486342553046132784324864699649681006 (0xACA5763EC18EA419BB2B1272216EE66E)
Complete name : Source.Code.2011.BDRip.1080p.MediaClub.mkv
Format : Matroska
Format version : Version 4 / Version 2
File size : 12.6 GiB
Duration : 1h 33mn
Overall bit rate : 19.4 Mbps
Movie name : release MediaClub - MINION
Encoded date : UTC 2014-10-18 13:33:42
Writing application : mkvmerge v6.9.1 ('Blue Panther') 64bit built on Apr 18 2014 18:23:38
Writing library : libebml v1.3.0 + libmatroska v1.4.1
Video
ID : 1
Format : AVC
Format/Info : Advanced Video Codec
Format profile : High@L4.1
Format settings, CABAC : Yes
Format settings, ReFrames : 4 frames
Codec ID : V_MPEG4/ISO/AVC
Duration : 1h 33mn
Bit rate : 12.5 Mbps
Width : 1 920 pixels
Height : 1 080 pixels
Display aspect ratio : 16:9
Frame rate mode : Constant
Frame rate : 23.976 fps
Color space : YUV
Chroma subsampling : 4:2:0
Bit depth : 8 bits
Scan type : Progressive
Bits/(Pixel*Frame) : 0.251
Stream size : 7.89 GiB (63%)
Title : Source Code 2011 BDRip 1080p [MediaClub - MINION]
Writing library : x264 core 142 r2431 ac76440
Encoding settings : cabac=1 / ref=4 / deblock=1:-3:-3 / analyse=0x3:0x133 / me=esa / subme=11 / psy=1 / psy_rd=1.00:0.10 / mixed_ref=1 / me_range=48 / chroma_me=1 / trellis=2 / 8x8dct=1 / cqm=0 / deadzone=21,11 / fast_pskip=0 / chroma_qp_offset=-3 / threads=6 / lookahead_threads=1 / sliced_threads=0 / nr=0 / decimate=0 / interlaced=0 / bluray_compat=0 / constrained_intra=0 / bframes=8 / b_pyramid=2 / b_adapt=2 / b_bias=0 / direct=3 / weightb=1 / open_gop=0 / weightp=2 / keyint=240 / keyint_min=23 / scenecut=40 / intra_refresh=0 / rc=2pass / mbtree=0 / bitrate=12500 / ratetol=1.0 / qcomp=0.60 / qpmin=10 / qpmax=51 / qpstep=4 / cplxblur=20.0 / qblur=0.5 / ip_ratio=1.40 / pb_ratio=1.30 / aq=1:1.00
Language : English
Default : Yes
Forced : No
Audio #1
ID : 2
Format : AC-3
Format/Info : Audio Coding 3
Mode extension : CM (complete main)
Format settings, Endianness : Big
Codec ID : A_AC3
Duration : 1h 33mn
Bit rate mode : Constant
Bit rate : 640 Kbps
Channel(s) : 6 channels
Channel positions : Front: L C R, Side: L R, LFE
Sampling rate : 48.0 KHz
Bit depth : 16 bits
Compression mode : Lossy
Stream size : 427 MiB (3%)
Title : DUB - Blu-ray RUS
Language : Russian
Default : Yes
Forced : No
Audio #2
ID : 3
Format : DTS
Format/Info : Digital Theater Systems
Mode : 16
Format settings, Endianness : Big
Codec ID : A_DTS
Duration : 1h 33mn
Bit rate mode : Constant
Bit rate : 1 509 Kbps
Channel(s) : 6 channels
Channel positions : Front: L C R, Side: L R, LFE
Sampling rate : 48.0 KHz
Bit depth : 24 bits
Compression mode : Lossy
Stream size : 1 006 MiB (8%)
Title : AVO - Андрей Гаврилов
Language : Russian
Default : No
Forced : No
Audio #3
ID : 4
Format : DTS
Format/Info : Digital Theater Systems
Mode : 16
Format settings, Endianness : Big
Codec ID : A_DTS
Duration : 1h 33mn
Bit rate mode : Constant
Bit rate : 1 509 Kbps
Channel(s) : 6 channels
Channel positions : Front: L C R, Side: L R, LFE
Sampling rate : 48.0 KHz
Bit depth : 24 bits
Compression mode : Lossy
Stream size : 1 006 MiB (8%)
Title : VO - Александр Дасевич
Language : Russian
Default : No
Forced : No
Audio #4
ID : 5
Format : DTS
Format/Info : Digital Theater Systems
Mode : 16
Format settings, Endianness : Big
Codec ID : A_DTS
Duration : 1h 33mn
Bit rate mode : Constant
Bit rate : 1 509 Kbps
Channel(s) : 6 channels
Channel positions : Front: L C R, Side: L R, LFE
Sampling rate : 48.0 KHz
Bit depth : 16 bits
Compression mode : Lossy
Stream size : 1 006 MiB (8%)
Title : DUB
Language : Ukrainian
Default : No
Forced : No
Audio #5
ID : 6
Format : AC-3
Format/Info : Audio Coding 3
Mode extension : CM (complete main)
Format settings, Endianness : Big
Codec ID : A_AC3
Duration : 1h 33mn
Bit rate mode : Constant
Bit rate : 192 Kbps
Channel(s) : 2 channels
Channel positions : Front: L R
Sampling rate : 48.0 KHz
Bit depth : 16 bits
Compression mode : Lossy
Stream size : 128 MiB (1%)
Title : MVO - 1+1
Language : Ukrainian
Default : No
Forced : No
Audio #6
ID : 7
Format : DTS
Format/Info : Digital Theater Systems
Mode : 16
Format settings, Endianness : Big
Codec ID : A_DTS
Duration : 1h 33mn
Bit rate mode : Constant
Bit rate : 1 509 Kbps
Channel(s) : 6 channels
Channel positions : Front: L C R, Side: L R, LFE
Sampling rate : 48.0 KHz
Bit depth : 24 bits
Compression mode : Lossy
Stream size : 1 006 MiB (8%)
Language : English
Default : No
Forced : No
Text #1
ID : 8
Format : UTF-8
Codec ID : S_TEXT/UTF8
Codec ID/Info : UTF-8 Plain Text
Title : voronine
Language : Russian
Default : No
Forced : No
Text #2
ID : 9
Format : UTF-8
Codec ID : S_TEXT/UTF8
Codec ID/Info : UTF-8 Plain Text
Title : voronine, SDH
Language : Russian
Default : No
Forced : No
Text #3
ID : 10
Format : UTF-8
Codec ID : S_TEXT/UTF8
Codec ID/Info : UTF-8 Plain Text
Language : English
Default : No
Forced : No
Text #4
ID : 11
Format : UTF-8
Codec ID : S_TEXT/UTF8
Codec ID/Info : UTF-8 Plain Text
Title : SDH
Language : English
Default : No
Forced : No
Menu
00:00:00.000 : :Chapter 01
00:06:52.870 : :Chapter 02
00:11:03.663 : :Chapter 03
00:17:20.038 : :Chapter 04
00:21:06.556 : :Chapter 05
00:28:36.797 : :Chapter 06
00:31:50.364 : :Chapter 07
00:36:19.885 : :Chapter 08
00:41:35.742 : :Chapter 09
00:47:21.838 : :Chapter 10
00:52:30.188 : :Chapter 11
00:54:32.101 : :Chapter 12
00:58:01.226 : :Chapter 13
01:03:02.320 : :Chapter 14
01:09:39.550 : :Chapter 15
01:15:12.046 : :Chapter 16
01:21:49.654 : :Chapter 17
01:24:41.117 : :Chapter 18
01:33:12.336 : :Chapter 19

Знаете ли вы, что...

» Песня, которая стоит на звонке у Кристины — Chesney Hawkes — «The One and Only», она же играет на будильнике у Сэма в другом фильме Дункана Джонса — «Луна 2112».
» Примечательно, что отца капитана Колтера Стивенса озвучивает Скотт Бакула — актер, известный главной ролью в сериале «Квантовый скачок», что был снят на ту же тему, и основные стилистические элементы которого в точности повторяют основные стилистические элементы «Исходного кода».
» На главную роль рассматривался Тофер Грейс.
» Вера Фармига заявила, что согласилась на роль в начале беременности в феврале 2010 года. Она знала, что в такой ситуации будет недоступна в течение следующих 10 месяцев. Все сцены с ней были сняты в течение 10 дней.

Скриншоты

Релиз от: |
[Профиль] [ЛС]
Кто просматривает тему:

Форум Тема Автор Размер
Фантастика и фэнтези Александр Мазин - Мастер Исхода (2015) MP3 Swager 770 MB
Action Исход с Земли / Exodus from the Earth (1C / СофтКлаб) (Full RUS) [L] TorrentFilm 3.77 GB
Фильмы (HD DVD, Blu-ray и BDRemux) Исход: Цари и боги / Exodus: Gods and Kings (2014) BDRemux 1080p | Лицензия достали все 37.61 GB
Фильмы 2014 года Исход: Цари и боги / Exodus: Gods and Kings (2014) BDRip | Лицензия достали все 1.46 GB
Фильмы 2014 года Исход: Цари и боги / Exodus: Gods and Kings (Ридли Скотт) [2014 г., боевик, драма, приключения] BDRip | Лицензия BOSS 2.18 GB
Фильмы (HD DVD, Blu-ray и BDRemux) Исход: Цари и боги 2D, 3D / Exodus: Gods and Kings 2D, 3D (2014) BDRemux 1080р | 3D-Video | Лицензия BOSS 41.59 GB
Зарубежные Исход: Цари и боги 3Д в 3Д / Exodus: Gods and Kings 3D (2-Disc Edition) 3D (Ридли Скотт / Ridley Scott) [2014, боевик, драма, приключения, Blu-Ray Disc, 1080p] BD3D TorrentFilm 85.69 GB
Зарубежные Исход: Цари и боги в 3Д / Exodus: Gods and Kings 3D (Ридли Скотт / Ridley Scott) [2014, Боевик, драма, приключения, BDremux, 1080p] BD3D TorrentFilm 40.01 GB
Показать сообщения:    

Текущее время: Сегодня 06:28

Часовой пояс: GMT



Вы не можете начинать темы
Вы не можете отвечать на сообщения
Вы не можете редактировать свои сообщения
Вы не можете удалять свои сообщения
Вы не можете голосовать в опросах
Вы не можете прикреплять файлы к сообщениям
Вы не можете скачивать файлы