История своими глазами / Mit eigenen Augen - Zeitgeschichten [сезон 1 серии 1-2 из 7] (Christian Bock, Volker Wild) [2013 г., Документальный, археология, история, исследования, SATRip]

 
Автор Сообщение

skorpionN ®

Пол:

Стаж: 2 года 3 месяца

Сообщений: 718



Награды: 4 (Подробнее)

Mega Seeder 3 (Количество: 1) Mega Seeder 2 (Количество: 1) Top Releaser 2 (Количество: 1)
Торрент-статистика

Создавать темы 24-Июл-2016 06:37

[Цитировать]

История своими глазами / Mit eigenen Augen - Zeitgeschichten [сезон 1 серии 1-2 из 7]
Год выпуска: 2013
Страна: Германия, F12 Media
Жанр: Документальный, археология, история, исследования
Продолжительность: 2x~00:49:00
Перевод: Профессиональный (двухголосый), компания "Видеофильм ТВ"
Режиссер: Christian Bock, Volker Wild
В ролях: Harald Stadler, Ursina Jecklin, Tamara Senfter, Hans-Peter Schrattenthaler, Christine Frenkenberger...
Описание: Команда исследователей, состоящая из археологов, историков, спелеологов, исследует древние поселения, замки и захоронения в альпийском регионе. Ученые пытаются найти ответы на вопросы - когда, кто и как их построил, каково их предназначение и функции.
Список серий:
01. Римляне и тайна альпийского озера / Die Romer und das Geheimnis des Alpensees
02. Последние загадки императорских замков / Die letzten Ratsel der Kaiserburgen

03. Meine Wiesn, Teil 1
04. Meine Wiesn, Teil 2
05. Die Todesnacht von Longarone
06. Peter Rosegger - Der Poet, der aus dem Walde kam
07. Aus dem Leben einer Wachauer Winzerfamilie
Качество: SATRip
Формат: AVI
Видео кодек: XviD
Аудио кодек: AC3
Видео: 720x400 25fps 1800kbps
Аудио: AC3 2ch, 48kHz, 192 kbps

Скриншоты


MediaInfo:

Format : AVI
Format/Info : Audio Video Interleave
File size : 712 MiB
Duration : 49 min
Overall bit rate : 1 999 kb/s
Writing application : TMPGEnc Video Mastering Works 6 Trial with Movie Plug-in Version. 6.1.5.26
Writing library : TMPGEnc Video Mastering Works 6 Trial with Movie Plug-in Version. 6.1.5.26
Video
ID : 0
Format : MPEG-4 Visual
Format profile : Simple@L0
Format settings, BVOP : No
Format settings, QPel : No
Format settings, GMC : No warppoints
Format settings, Matrix : Default (H.263)
Codec ID : XVID
Codec ID/Hint : XviD
Duration : 49 min
Bit rate : 1 800 kb/s
Width : 720 pixels
Height : 400 pixels
Display aspect ratio : 16:9
Frame rate : 25.000 FPS
Color space : YUV
Chroma subsampling : 4:2:0
Bit depth : 8 bits
Scan type : Progressive
Compression mode : Lossy
Bits/(Pixel*Frame) : 0.250
Stream size : 641 MiB (90%)
Writing library : XviD 1.1.2 (UTC 2006-11-01)
Audio
ID : 1
Format : AC-3
Format/Info : Audio Coding 3
Mode extension : CM (complete main)
Format settings, Endianness : Big
Codec ID : 2000
Duration : 49 min
Bit rate mode : Constant
Bit rate : 192 kb/s
Channel(s) : 2 channels
Channel positions : Front: L R
Sampling rate : 48.0 kHz
Frame rate : 31.250 FPS (1536 spf)
Compression mode : Lossy
Stream size : 68.4 MiB (10%)
Alignment : Aligned on interleaves
Interleave, duration : 333 ms (8.34 video frames)

Внимание:

Раздача ведётся путём добавления новых серий; при каждом добавлении создаётся новый торрент. Чтобы начать докачку новой серии, пользователям необходимо сделать следующее:
- Остановить скачивание.
- Удалить старый торрент у себя из клиента (старые серии удалять не надо).
- Скачать новый торрент и запустить его у себя в клиенте вместо старого, при этом указать клиенту путь в старую папку куда и должно происходить скачивание новых серий.
Добавлено
01. Римляне и тайна альпийского озера / Die Romer und das Geheimnis des Alpensees
02. Последние загадки императорских замков / Die letzten Ratsel der Kaiserburgen
[Профиль] [ЛС]

KiruhaDelMar

Стаж: 2 года 3 месяца

Сообщений: 264



Награды: Нет

Торрент-статистика

Создавать темы 24-Июл-2016 14:45 (спустя 8 часов)

[Цитировать]

Своими глазами это своими, а телевизор к этому понятию ну никак не относится, к тому же историю можно рассказать, но никак не увидеть, глупое выражение hunter
[Профиль] [ЛС]
Кто просматривает тему:

Форум Тема Автор Размер
365 365: BBC: Свидетельства Атлантиды / Atlantis: The Evidence (Натали Майнес / Natalie Maynes) [2010 г., документальный, история Древнего мира, SATRip] skorpionN 709 MB
Культура и искусство 365: Величайшие художники мира. От импрессионизма до сюрреализма и абстракционизма / The Greatest Painters of the World (Le plus grand peintres du monde) [серии 1-2 из ] (Жак Више / Jacques Vichet)... skorpionN 1.24 GB
365 365: Гинденбург и Гитлер / Hindenburg & Hitler (Hindenburg - Der Mann, der Hitler an die Macht verhalf) (Кристоф Вайнерт / Christoph Weinert) [2013 г., Документальный, история, биографический, SATRip] skorpionN 739 MB
Культура и искусство 365: Забытые сокровища Средиземноморья / Trésors oubliés de la Méditerranée [серии 3,4 из 5] (Claude-Sophie Antoine) [2012-2015 г., Документальный, история искусств, SATRip] skorpionN 692 MB
365 365: Золото Бога Солнца / The Blood of the Sun God (Stephan Koester) [2009 г., Документальный, игровой, история, SATRip] skorpionN 1 GB
365 365: Изабелла и Колумб. Королевский посланник / Isabel y Colón: El Legado de un Reino [части 1-3 из 3] (Омар Плейте / Omar Pleite) [2008 г., Документальный, история, биографический, SATRip] skorpionN 1.13 GB
365 365: Людовик ХIV, загадка форта Сент Себастьян / Louis XIV et l'énigme du fort Saint Sébastien (Лоран Мармоль / Laurent Marmol, Фредерик Лоссиньоль / Frédéric Lossig... skorpionN 748 MB
365 365: Мебель Версаля. От Короля-Солнце до Великой французской революции / Le Mobilier de Versailles. Du Roi-Soleil à la Révolution (Фабрис Урлье / Fabrice Hourlier) [2014 г., Документальный, история,... skorpionN 744 MB
Показать сообщения:    

Текущее время: Сегодня 12:36

Часовой пояс: GMT



Вы не можете начинать темы
Вы не можете отвечать на сообщения
Вы не можете редактировать свои сообщения
Вы не можете удалять свои сообщения
Вы не можете голосовать в опросах
Вы не можете прикреплять файлы к сообщениям
Вы не можете скачивать файлы