История о Рикки / Lik Wong (Нгай Кай Лам) [1991 г., ужасы, фантастика, боевик, триллер, комедия, BDRip 720p] [AVO]+[Original]+[SUB]

 
Автор Сообщение

Bathory ®

Пол:

Стаж: 9 месяцев 1 день

Сообщений: 169



Награды: 3 (Подробнее)

Друг (Количество: 1) Girls (Количество: 1) За внесенный вклад в развитие сайта (Количество: 1)
Торрент-статистика

Создавать темы 07-Мар-2016 10:44

[Цитировать]

История о Рикки / Lik Wong- Информация о фильме
Название: История о Рикки / История Рикки
Оригинальное название: Lik Wong / The story of Ricky / Riki-Oh
Год выхода: 1991
Жанр: ужасы, фантастика, боевик, триллер, комедия
Режиссер: Нгай Кай Лам
В ролях: Фан Сю-Вонг, Мей Шенг Фэн, Ка-Куи Хо, Осима Юкари, Фрэнки Чин, Тэцуро Тамба, Глория Йип, Филип Квок, Билл Лунг Биу, Йиу-Синг Чунг
О фильме:
В недалеком будущем могущественная корпорации управляет тюрьмами, где использует обитателей как дешевую рабочую силу. Рики приговорен к тюремному сроку за то, что убил босса триады, который был причастен к смерти его подруги. Рики очень быстро узнает внутренние тюремные правила, где заключенные состоят в различных бригадах, которые управляют определенными аспектами тюремной жизни.
Вскоре он входит в немилость охраны, защитив и поддержав невинного и тюремный штат начинает мстить ему. Рикки прекрасно владеет боевыми искусствами. Очень скоро и охранники и обитатели тюрьмы понимают что связываться с Рики бесполезно: он переносит любую боль и одним ударом кулака способен пробить грудную клетку человека. Однако начальник тюрьмы не намерен сдаваться….

Страна: Гонконг, Япония
Студия: Diagonal Pictures, Paragon Films Ltd
Продолжительность: 01:32:09
Перевод:
1. Авторский (одноголосый закадровый) Сергей Кузнецов
2. Авторский (одноголосый закадровый) Андрей Дольский
Файл
Кодек: AVC
Качество: BDRip 720p
Видео: 1280x720, 5359 kbps, 23,976 fps, 0,243 Bits/(Pixel*Frame)
Звук:
1. AC3, 48 kHz, 2 ch, 192 kbps - AVO (Кузнецов)
2. AC3, 48 kHz, 2 ch, 192 kbps - AVO (Дольский)
3. AC3, 48 kHz, 6 ch, 448 kbps - Original (Chinese)
Субтитры: английские

MI

General
Unique ID : 176287600198076214549822015797758272073 (0x849FC1BDF1A3ED0FA85F839498582249)
Complete name : E:The.Story.Of.Ricky.1991.BDRip.720p_by_Bathory.mkv
Format : Matroska
Format version : Version 4 / Version 2
File size : 3.99 GiB
Duration : 1h 32mn
Overall bit rate : 6 192 Kbps
Movie name : The.Story.Of.Ricky.1991.BDRip.720p_by_Bathory
Encoded date : UTC 2016-03-07 08:42:16
Writing application : mkvmerge v8.8.0 ('Wind at my back') 64bit
Writing library : libebml v1.3.3 + libmatroska v1.4.4
Cover : Yes
DURATION : 01:27:07.458000000
NUMBER_OF_FRAMES : 655
NUMBER_OF_BYTES : 19023
_STATISTICS_WRITING_APP : mkvmerge v8.8.0 ('Wind at my back') 64bit
_STATISTICS_WRITING_DATE_UTC : 2016-03-07 08:42:16
_STATISTICS_TAGS : BPS DURATION NUMBER_OF_FRAMES NUMBER_OF_BYTES
Video
ID : 1
Format : AVC
Format/Info : Advanced Video Codec
Format profile : High@L4.1
Format settings, CABAC : Yes
Format settings, ReFrames : 9 frames
Codec ID : V_MPEG4/ISO/AVC
Duration : 1h 32mn
Bit rate : 5 359 Kbps
Width : 1 280 pixels
Height : 720 pixels
Display aspect ratio : 16:9
Frame rate mode : Constant
Frame rate : 23.976 fps
Color space : YUV
Chroma subsampling : 4:2:0
Bit depth : 8 bits
Scan type : Progressive
Bits/(Pixel*Frame) : 0.243
Stream size : 3.37 GiB (85%)
Title : The Story Of Ricky
Writing library : x264 core 148 r2665 a01e339
Encoding settings : cabac=1 / ref=9 / deblock=1:-3:-3 / analyse=0x3:0x133 / me=umh / subme=11 / psy=1 / psy_rd=1.10:0.10 / mixed_ref=1 / me_range=32 / chroma_me=1 / trellis=2 / 8x8dct=1 / cqm=0 / deadzone=21,11 / fast_pskip=0 / chroma_qp_offset=-3 / threads=12 / lookahead_threads=3 / sliced_threads=0 / nr=0 / decimate=0 / interlaced=0 / bluray_compat=0 / constrained_intra=0 / bframes=12 / b_pyramid=2 / b_adapt=2 / b_bias=0 / direct=3 / weightb=1 / open_gop=0 / weightp=2 / keyint=240 / keyint_min=23 / scenecut=0 / intra_refresh=0 / rc_lookahead=60 / rc=2pass / mbtree=1 / bitrate=5359 / ratetol=1.0 / qcomp=0.70 / qpmin=0 / qpmax=69 / qpstep=4 / cplxblur=15.0 / qblur=0.5 / vbv_maxrate=62500 / vbv_bufsize=78125 / nal_hrd=none / filler=0 / ip_ratio=1.40 / aq=2:1.00
Default : Yes
Forced : No
Audio #1
ID : 2
Format : AC-3
Format/Info : Audio Coding 3
Mode extension : CM (complete main)
Format settings, Endianness : Big
Codec ID : A_AC3
Duration : 1h 32mn
Bit rate mode : Constant
Bit rate : 192 Kbps
Channel(s) : 2 channels
Channel positions : Front: L R
Sampling rate : 48.0 KHz
Bit depth : 16 bits
Compression mode : Lossy
Stream size : 127 MiB (3%)
Title : Кузнецов
Language : Russian
Default : Yes
Forced : No
Audio #2
ID : 3
Format : AC-3
Format/Info : Audio Coding 3
Mode extension : CM (complete main)
Format settings, Endianness : Big
Codec ID : A_AC3
Duration : 1h 32mn
Bit rate mode : Constant
Bit rate : 192 Kbps
Channel(s) : 2 channels
Channel positions : Front: L R
Sampling rate : 48.0 KHz
Bit depth : 16 bits
Compression mode : Lossy
Stream size : 127 MiB (3%)
Title : Дольский
Language : Russian
Default : No
Forced : No
Audio #3
ID : 4
Format : AC-3
Format/Info : Audio Coding 3
Mode extension : CM (complete main)
Format settings, Endianness : Big
Codec ID : A_AC3
Duration : 1h 32mn
Bit rate mode : Constant
Bit rate : 448 Kbps
Channel(s) : 6 channels
Channel positions : Front: L C R, Side: L R, LFE
Sampling rate : 48.0 KHz
Bit depth : 16 bits
Compression mode : Lossy
Stream size : 295 MiB (7%)
Title : Original
Language : Chinese
Default : No
Forced : No
Text #1
ID : 5
Format : UTF-8
Codec ID : S_TEXT/UTF8
Codec ID/Info : UTF-8 Plain Text
Title : GBR BD
Language : English
Default : No
Forced : No
Text #2
ID : 6
Format : UTF-8
Codec ID : S_TEXT/UTF8
Codec ID/Info : UTF-8 Plain Text
Title : US BD
Language : English
Default : No
Forced : No
Menu
00:00:00.000 : en:00:00:00.000
00:12:35.672 : en:00:12:35.672
00:27:41.952 : en:00:27:41.952
00:42:54.739 : en:00:42:54.739
00:54:52.289 : en:00:54:52.289
01:12:55.871 : en:01:12:55.871

Скриншоты

Автор рипа: Bathory
[Профиль] [ЛС]
Кто просматривает тему:

Форум Тема Автор Размер
Metal (Heavy Metal) Ария - Котёл Истории - Live MMXV (RU Universal Music) - 2015 [FLAC, image +.cue, lossless] sergej644 503 MB
Cборники 70х-80х-90х (Ретро) (Pop / Rock / Disco) VA - История Музыки 70 - 2011, MP3, 128 kbps Magnat 653 MB
Сhanson (Шансон) Гриша Заречный - Дорожные истории - 2011, MP3, 320 kbps Magnat 177 MB
Кино СССР ...А зори здесь тихие (Станислав Ростоцкий) [1972, драма, военный, история] DVDRip | Полная версия BOSS 2.83 GB
Бокс, Бои без правил, К1 10 лучших одноударных нокаутов в истории бокса [1897-2012, Бокс, SATRip] Один 777 3.02 GB
Бокс, Бои без правил, К1 10 самых быстрых одноударных нокаутов в истории бокса [1982-2005, Бокс, SATRip, TVRip] Один 777 473 MB
Фильмы 2009 года 1066 - Нормандское завоевание Англии / 1066 - The Battle for Middle Earth (Джастин Харди / Justin Hardy) [2009, Великобритания, боевик, военный, история, DVDRip] VO (SDI Media) + Original Eng TorrentFilm 2.19 GB
Фильмы (HD Rips | 720p, 1080p) 12 лет рабства / 12 Years a Slave (Стив МакКуин / Steve McQueen) [2013, США, Великобритания, драма, биография, история, BDRip 720p] Dub + AVO (Сербин) + Sub Rus,Eng + Original Eng reversefile 8.9 GB
Показать сообщения:    

Текущее время: Сегодня 08:01

Часовой пояс: GMT



Вы не можете начинать темы
Вы не можете отвечать на сообщения
Вы не можете редактировать свои сообщения
Вы не можете удалять свои сообщения
Вы не можете голосовать в опросах
Вы не можете прикреплять файлы к сообщениям
Вы не можете скачивать файлы