История дельфина 2 / Dolphin Tale 2 (Чарльз Мартин Смит / Charles Martin Smith) [2014, США, драма, семейный, HDRip] Dub (iTunes)

 
Автор Сообщение

TorrentFilm ®

Пол:

Стаж: 2 года 6 месяцев

Сообщений: 7773



Награды: Нет

Торрент-статистика

Создавать темы 21-Дек-2014 02:15

[Цитировать]

История дельфина 2 / Dolphin Tale 2
Страна: США
Жанр: Драма, семейный
Год выпуска: 2014
Продолжительность: 01:47:14
Перевод: Профессиональный (дублированный [iTunes]
Оригинальная аудиодорожка: нет
Cубтитры: нет
Режиссер: Чарльз Мартин Смит / Charles Martin Smith
В ролях:Морган Фриман, Эшли Джадд, Гарри Конник мл., Крис Кристофферсон, Нэйтан Гэмбл, Джулия Винтер, Кози Цуельсдорфф, Остин Стоуэлл, Джулиана Харкви, Остин Хигсмит...
Описание:Прошло несколько лет после событий, описываемых в первом фильме. Суррогатная мать Уинтер, старая дельфиниха по имени Панама, скончалась. В итоге Уинтер осталась одна, а по законам Министерства сельского хозяйства США дельфинов нельзя содержать по одному. Чтобы Уинтер не перевезли в другой аквариум, команде морского госпиталя придется найти ей компаньона…
Сэмпл
Качество: HDRip
Контейнер: AVI
Видео: 624x352 (1.77:1), 23.976 fps, XviD build 73 ~834 kbps avg, 0.16 bit/pixel
Аудио: 48 kHz, MPEG Layer 3, 2 ch, ~128.00 kbps avg

MI

Общее
Полное имя : C:\Users\Пользователь\Downloads\Dolphin.Tale.2.2014_HDRip.avi
Формат : AVI
Формат/Информация : Audio Video Interleave
Размер файла : 745 Мбайт
Продолжительность : 1 ч. 47 м.
Общий поток : 971 Кбит/сек
Программа кодирования : VirtualDubMod 1.5.10.2 (build 2540/release)
Библиотека кодирования : VirtualDubMod build 2540/release
Видео
Идентификатор : 0
Формат : MPEG-4 Visual
Профиль формата : Advanced Simple@L5
Параметр BVOP формата : 1
Параметр QPel формата : Нет
Параметр GMC формата : Без точки перехода
Параметр матрицы формата : Выборочная
Идентификатор кодека : XVID
Идентификатор кодека/Подсказка : XviD
Продолжительность : 1 ч. 47 м.
Битрейт : 834 Кбит/сек
Ширина : 624 пикселя
Высота : 352 пикселя
Соотношение сторон : 16:9
Частота кадров : 23,976 кадра/сек
Цветовое пространство : YUV
Субдискретизация насыщенности : 4:2:0
Битовая глубина : 8 бит
Тип развёртки : Прогрессивная
Метод сжатия : С потерями
Бит/(Пиксели*Кадры) : 0.158
Размер потока : 640 Мбайт (86%)
Библиотека кодирования : XviD 73
Аудио
Идентификатор : 1
Формат : MPEG Audio
Версия формата : Version 1
Профиль формата : Layer 3
Идентификатор кодека : 55
Идентификатор кодека/Подсказка : MP3
Продолжительность : 1 ч. 47 м.
Вид битрейта : Постоянный
Битрейт : 128 Кбит/сек
Каналы : 2 канала
Частота : 48,0 КГц
Метод сжатия : С потерями
Размер потока : 98,1 Мбайт (13%)
Выравнивание : Соединение по промежуткам
Продолжительность промежутка : 42 мс. (1,00 видеокадр)
Время предзагрузки промежутка : 504 мс.
Библиотека кодирования : LAME3.99r
Настройки программы : -m s -V 4 -q 2 -lowpass 17 -b 128

Скриншоты

[Профиль] [ЛС]
Кто просматривает тему:

Форум Тема Автор Размер
Биографии и личности 1715: Король-Солнце умер! / La Mort de Louis XIV (1715: The Sun King is Dead !) (Сильви Февле / Sylvie Faiveley) [2015 г., Документально-игровой, история, SATRip] skorpionN 742 MB
365 365: BBC: Свидетельства Атлантиды / Atlantis: The Evidence (Натали Майнес / Natalie Maynes) [2010 г., документальный, история Древнего мира, SATRip] skorpionN 709 MB
Культура и искусство 365: Величайшие художники мира. От импрессионизма до сюрреализма и абстракционизма / The Greatest Painters of the World (Le plus grand peintres du monde) [серии 1-2 из ] (Жак Више / Jacques Vichet)... skorpionN 1.24 GB
365 365: Гинденбург и Гитлер / Hindenburg & Hitler (Hindenburg - Der Mann, der Hitler an die Macht verhalf) (Кристоф Вайнерт / Christoph Weinert) [2013 г., Документальный, история, биографический, SATRip] skorpionN 739 MB
Культура и искусство 365: Забытые сокровища Средиземноморья / Trésors oubliés de la Méditerranée [серии 3,4 из 5] (Claude-Sophie Antoine) [2012-2015 г., Документальный, история искусств, SATRip] skorpionN 692 MB
365 365: Золото Бога Солнца / The Blood of the Sun God (Stephan Koester) [2009 г., Документальный, игровой, история, SATRip] skorpionN 1 GB
365 365: Изабелла и Колумб. Королевский посланник / Isabel y Colón: El Legado de un Reino [части 1-3 из 3] (Омар Плейте / Omar Pleite) [2008 г., Документальный, история, биографический, SATRip] skorpionN 1.13 GB
365 365: Людовик ХIV, загадка форта Сент Себастьян / Louis XIV et l'énigme du fort Saint Sébastien (Лоран Мармоль / Laurent Marmol, Фредерик Лоссиньоль / Frédéric Lossig... skorpionN 748 MB
Показать сообщения:    

Текущее время: Сегодня 12:33

Часовой пояс: GMT



Вы не можете начинать темы
Вы не можете отвечать на сообщения
Вы не можете редактировать свои сообщения
Вы не можете удалять свои сообщения
Вы не можете голосовать в опросах
Вы не можете прикреплять файлы к сообщениям
Вы не можете скачивать файлы