История дельфина 2 / Dolphin Tale 2 (Чарльз Мартин Смит / Charles Martin Smith) [2014, США, драма, семейный, BDRip] Dub

 
Автор Сообщение

TorrentFilm ®

Пол:

Стаж: 2 года 6 месяцев

Сообщений: 7773



Награды: Нет

Торрент-статистика

Создавать темы 20-Дек-2014 02:01

[Цитировать]

История дельфина 2 / Dolphin Tale 2-«В удивительной истории Уинтер появилась надежда»- Страна: США
Жанр: драма, семейный
Год выпуска: 2014
Продолжительность: 01:47:14
Перевод: Профессиональный (дублированный) - | iTunes |
Cубтитры: нет
Оригинальная аудиодорожка: нет-Режиссер: Чарльз Мартин Смит / Charles Martin Smith-В ролях: Морган Фриман, Эшли Джадд, Гарри Конник мл., Крис Кристофферсон, Нэйтан Гэмбл, Джулия Винтер, Кози Цуельсдорфф, Остин Стоуэлл, Джулиана Харкви, Остин Хигсмит...-Описание: Прошло несколько лет после событий, описываемых в первом фильме. Суррогатная мать Уинтер, старая дельфиниха по имени Панама, скончалась. В итоге Уинтер осталась одна, а по законам Министерства сельского хозяйства США дельфинов нельзя содержать по одному. Чтобы Уинтер не перевезли в другой аквариум, команде морского госпиталя придется найти ей компаньона…-Автор рипа: _Flash- -Качество видео: BDRip | Istorija.delfina.2.2014.BDRemux.1080p |
Формат видео: AVI
Видео: 720x400, 23.976 fps, XviD build 73 ~1567 kbps avg, 0.230 bit/pixel
Аудио: 48 kHz, AC3 Dolby Digital, 3/2 (L,C,R,l,r) + LFE ch, ~384.00 kbps
-

Дополнительно о фильме:

Производство, студия дубляжа, прокат:

MediaInfo

General
Complete name : D:\Rip's_By_Flash\Dolphin Tale 2.BDRip.By_Flash.avi
Format : AVI
Format/Info : Audio Video Interleave
File size : 1.47 GiB
Duration : 1h 47mn
Overall bit rate : 1 960 Kbps
Writing application : VirtualDubMod 1.5.10.3 | www.virtualdub-fr.org || (build 2550/release)
Writing library : VirtualDubMod build 2550/release
Video
ID : 0
Format : MPEG-4 Visual
Format profile : Advanced Simple@L5
Format settings, BVOP : 1
Format settings, QPel : No
Format settings, GMC : No warppoints
Format settings, Matrix : Custom
Codec ID : XVID
Codec ID/Hint : XviD
Duration : 1h 47mn
Bit rate : 1 567 Kbps
Width : 720 pixels
Height : 400 pixels
Display aspect ratio : 16:9
Frame rate : 23.976 fps
Color space : YUV
Chroma subsampling : 4:2:0
Bit depth : 8 bits
Scan type : Progressive
Compression mode : Lossy
Bits/(Pixel*Frame) : 0.227
Stream size : 1.17 GiB (80%)
Writing library : XviD 73
Audio
ID : 1
Format : AC-3
Format/Info : Audio Coding 3
Mode extension : CM (complete main)
Format settings, Endianness : Big
Codec ID : 2000
Duration : 1h 47mn
Bit rate mode : Constant
Bit rate : 384 Kbps
Channel(s) : 6 channels
Channel positions : Front: L C R, Side: L R, LFE
Sampling rate : 48.0 KHz
Bit depth : 16 bits
Compression mode : Lossy
Stream size : 294 MiB (20%)
Alignment : Split accross interleaves
Interleave, duration : 42 ms (1.00 video frame)
Interleave, preload duration : 500 ms

Скриншот c названием фильма

Скриншоты

[Профиль] [ЛС]
Кто просматривает тему:

Форум Тема Автор Размер
Metal (Heavy Metal) Ария - Котёл Истории - Live MMXV (RU Universal Music) - 2015 [FLAC, image +.cue, lossless] К@питан 503 MB
Биографии и личности 1715: Король-Солнце умер! / La Mort de Louis XIV (1715: The Sun King is Dead !) (Сильви Февле / Sylvie Faiveley) [2015 г., Документально-игровой, история, SATRip] skorpionN 742 MB
365 365: BBC: Свидетельства Атлантиды / Atlantis: The Evidence (Натали Майнес / Natalie Maynes) [2010 г., документальный, история Древнего мира, SATRip] skorpionN 709 MB
Культура и искусство 365: Величайшие художники мира. От импрессионизма до сюрреализма и абстракционизма / The Greatest Painters of the World (Le plus grand peintres du monde) [серии 1-3 из ] (Жак Више / Jacques Vichet)... skorpionN 1.89 GB
Биографии и личности 365: Винсент. Нерассказанная история нашего дяди. Биография Винсента Ван Гога / Vincent - The Untold Story of our Uncle, a biography the life & times of Vincent van Gogh [серии 1-7](Дай Кёндерс, Джон... skorpionN 6.74 GB
365 365: Гинденбург и Гитлер / Hindenburg & Hitler (Hindenburg - Der Mann, der Hitler an die Macht verhalf) (Кристоф Вайнерт / Christoph Weinert) [2013 г., Документальный, история, биографический, SATRip] skorpionN 739 MB
Культура и искусство 365: Забытые сокровища Средиземноморья / Trésors oubliés de la Méditerranée [серии 3-5 из 5] (Claude-Sophie Antoine) [2012-2015 г., Документальный, история искусств, DVB] skorpionN 1.01 GB
Архитектура и строительство 365: Замки и дворцы Европы / Castles and Palaces of Europe (Schlösserwelten Europas) [серии 1-5 из 5] (Jeremy J.P. Fekete / Джереми Фекете, Gero von Boehm / Геро фон Бём) [2013 г., Документальн... skorpionN 3.63 GB
Показать сообщения:    

Текущее время: Сегодня 14:34

Часовой пояс: GMT



Вы не можете начинать темы
Вы не можете отвечать на сообщения
Вы не можете редактировать свои сообщения
Вы не можете удалять свои сообщения
Вы не можете голосовать в опросах
Вы не можете прикреплять файлы к сообщениям
Вы не можете скачивать файлы