История двух воров / A Tale of Two Theives (Крис Лонг / Chris Long) [2014, Документальный, BDRemux 1080p]

 
Автор Сообщение

TorrentFilm ®

Пол:

Стаж: 2 года

Сообщений: 7741



Награды: Нет

Торрент-статистика

Создавать темы 28-Май-2015 00:04

[Цитировать]

История двух воров / A Tale of Two Theives
Год выпуска: 2014
Страна: Великобритания
Студия: Kowalski TV | Scallie Filmworks
Жанр: Документальный
Продолжительность: 01:11:49
Перевод: Профессиональный (многоголосый закадровый)
Доп. инфо о переводе: Первый канал
Русские субтитры: есть | Первый канал
Режиссер: Крис Лонг / Chris Long
Описание: Август 1963. Сирс-Кроссинг, Бакингемшир. Пятнадцать человек проворачивают «Великое ограбление поезда», их добыча составляет сумму на сегодняшний день равную 45 миллионам фунтов. Это то, что нам известно. Несмотря на огромное количество книг и фильмов, посвященных этому событию, мы никогда не слышали реальную историю из первых рук, равно как никто так и не смог узнать, кто скрывался под маской преступного гения, неуловимого «Алстермана». Так было до сегодняшнего дня. Спустя 50 лет после ограбления, один из его участников, Гордон Гуди, наконец-то согласился полностью раскрыть все неизвестные факты о той роковой ночи, включая личность «мифического» Алстермана…
Доп. информация: Рип от SbR
Покупка диска осуществлена в рамках сервиса "Копилка". Спонсоры: irrlicht, nekazz, exact, gelom.
Тип релиза: 1080p BDRemux
Контейнер: BDAV
Видео: 1920x1080 at 23,976 fps, AVC, ~29504 kbps avg
Аудио: Russian: 48 kHz, AC3, 2/0 (L,R) ch, ~384.00 kbps avg
Аудио 2: English: 48 kHz, LPCM, 2/0 (L,R) ch, ~1536.00 kbps avg
Формат субтитров: hardsub (неотключаемые)
Релиз: by HPotter

MediaInfo

ОбщееПолное имя : The.Great.Train.Robbery.A.Tale.of.Two.Theives.2014.1080p.BDRemux.Rus.Eng.HDCLUBФормат : Blu-ray movieПродолжительность : 1 ч. 11 м.Режим общего битрейта : ПеременныйОбщий поток : 1 бит/сек
ВидеоИдентификатор : 4113 (0x1011)Идентификатор меню : 1 (0x1)Формат : AVCФормат/Информация : Advanced Video CodecПрофиль формата : High@L4.1Параметр CABAC формата : ДаПараметр ReFrames формата : 3 кадраПараметр GOP формата : M=3, N=12Идентификатор кодека : 27Продолжительность : 1 ч. 11 м.Вид битрейта : ПеременныйБитрейт : 29,9 Мбит/секМаксимальный битрейт : 35,0 Мбит/секШирина : 1920 пикселейВысота : 1080 пикселейСоотношение сторон : 16:9Частота кадров : 23,976 кадра/секСтандарт вещания : NTSCЦветовое пространство : YUVСубдискретизация насыщенности : 4:2:0Битовая глубина : 8 битРазмер потока : 15,0 Гбайт (90%)Основные цвета : BT.709Характеристики трансфера : BT.709Коэффициенты матрицы : BT.709Оригинал : 00000.m2ts
Аудио #1Идентификатор : 4352 (0x1100)Идентификатор меню : 1 (0x1)Формат : AC-3Формат/Информация : Audio Coding 3Расширение режима : CM (complete main)Параметр Endianness формата : BigИдентификатор кодека : 129Продолжительность : 1 ч. 11 м.Вид битрейта : ПостоянныйБитрейт : 384 Кбит/секКаналы : 2 каналаРасположение каналов : Front: L RЧастота : 48,0 КГцБитовая глубина : 16 битМетод сжатия : С потерямиРазмер потока : 197 Мбайт (1%)Язык : Russian / Russianbsid : 8dialnorm : -27dialnorm/String : -27 dBcompr : -0.28compr/String : -0.28 dBdsurmod : 0acmod : 2lfeon : 0dialnorm_Average : -27dialnorm_Average/String : -27 dBdialnorm_Minimum : -27dialnorm_Minimum/String : -27 dBdialnorm_Maximum : -27dialnorm_Maximum/String : -27 dBdialnorm_Count : 1101compr_Average : 4.44compr_Average/String : 4.44 dBcompr_Minimum : -5.49compr_Minimum/String : -5.49 dBcompr_Maximum : 15.19compr_Maximum/String : 15.19 dBcompr_Count : 1101dynrng_Average : -1.30dynrng_Average/String : -1.30 dBdynrng_Minimum : -5.49dynrng_Minimum/String : -5.49 dBdynrng_Maximum : 5.60dynrng_Maximum/String : 5.60 dBdynrng_Count : 1101format_identifier : AC-3Оригинал : 00000.m2ts
Аудио #2Идентификатор : 4353 (0x1101)Идентификатор меню : 1 (0x1)Формат : PCMПараметр Endianness формата : BigПараметр Sign формата : SignedРежим смешивания : Blu-rayИдентификатор кодека : 128Продолжительность : 1 ч. 11 м.Вид битрейта : ПостоянныйБитрейт : 1536 Кбит/секКаналы : 2 каналаРасположение каналов : Front: L RЧастота : 48,0 КГцБитовая глубина : 16 битРазмер потока : 789 Мбайт (5%)Язык : English / Englishformat_identifier : HDMVОригинал : 00000.m2ts
ТекстИдентификатор : 4608 (0x1200)Идентификатор меню : 1 (0x1)Формат : PGSИдентификатор кодека : 144Продолжительность : 1 ч. 11 м.Задержка видео : 17 с.Язык : Russian / RussianОригинал : 00000.m2ts
Меню00:00:00.000 : Chapter 100:14:43.007 : Chapter 200:28:19.489 : Chapter 300:39:07.219 : Chapter 400:52:13.797 : Chapter 501:09:56.774 : Chapter 6

Скриншоты

[Профиль] [ЛС]
Кто просматривает тему:

Форум Тема Автор Размер
Metal (Heavy Metal) Ария - Котёл Истории - Live MMXV (RU Universal Music) - 2015 [FLAC, image +.cue, lossless] sergej644 503 MB
Cборники 70х-80х-90х (Ретро) (Pop / Rock / Disco) VA - История Музыки 70 - 2011, MP3, 128 kbps Magnat 653 MB
Сhanson (Шансон) Гриша Заречный - Дорожные истории - 2011, MP3, 320 kbps Magnat 177 MB
Кино СССР ...А зори здесь тихие (Станислав Ростоцкий) [1972, драма, военный, история] DVDRip | Полная версия BOSS 2.83 GB
Бокс, Бои без правил, К1 10 лучших одноударных нокаутов в истории бокса [1897-2012, Бокс, SATRip] Один 777 3.02 GB
Бокс, Бои без правил, К1 10 самых быстрых одноударных нокаутов в истории бокса [1982-2005, Бокс, SATRip, TVRip] Один 777 473 MB
Фильмы 2009 года 1066 - Нормандское завоевание Англии / 1066 - The Battle for Middle Earth (Джастин Харди / Justin Hardy) [2009, Великобритания, боевик, военный, история, DVDRip] VO (SDI Media) + Original Eng TorrentFilm 2.19 GB
Фильмы (HD Rips | 720p, 1080p) 12 лет рабства / 12 Years a Slave (Стив МакКуин / Steve McQueen) [2013, США, Великобритания, драма, биография, история, BDRip 720p] Dub + AVO (Сербин) + Sub Rus,Eng + Original Eng reversefile 8.9 GB
Показать сообщения:    

Текущее время: Сегодня 11:05

Часовой пояс: GMT



Вы не можете начинать темы
Вы не можете отвечать на сообщения
Вы не можете редактировать свои сообщения
Вы не можете удалять свои сообщения
Вы не можете голосовать в опросах
Вы не можете прикреплять файлы к сообщениям
Вы не можете скачивать файлы