История Габриэль Дуглас / The Gabby Douglas Story (Грегг Чемпион / Gregg Champion) [2014, США,, Драма, биография, WEB-DLRip] MVO (iTunes)

 
Автор Сообщение

Создавать темы 13-Июл-2014 16:37

История Габриэль Дуглас / The Gabby Douglas Story Страна: США,
Жанр: Драма, биография
Год выпуска: 2014
Продолжительность: 01:26:13
Перевод: Профессиональный (многоголосый закадровый) iTunes
Cубтитры: нет
Режиссер: Грегг Чемпион / Gregg Champion
В ролях: Реджина Кинг, Имани Хаким, Сидни Микайла, Брайан Ти, Дэвид Джонс, С. Эпата Меркерсон, Гэбриэлль Дуглас, Marley Smith, Kyal Rankine, Дин Армстронг
Описание: Фильм рассказывает об американской гимнастке Габриэль Кристине Виктории «Габби» Дуглас, двукратной олимпийской чемпионке, первая афроамериканской гимнастке, выигравшей командное и абсолютное первенство на одной Олимпиаде. Сэмпл: http://sendfile.su/987870
Качество видео: WEB-DLRip
Формат видео: AVI
Видео: MPEG4, XviD, 720x400 (16:9), 23.976 fps, 1 877 Kbps (0.272 bit/pixel)
Аудио: AC-3, 48.0 KHz, 6 ch, 384 Kbps, CBR

MediaInfo

Общее
Полное имя : K:\Istoriya.Gabrielj.Dyglas.2014.P.WEBDLRip.1400Mb.avi
Формат : AVI
Формат/Информация : Audio Video Interleave
Размер файла : 1,37 Гбайт
Продолжительность : 1 ч. 26 м.
Общий поток : 2270 Кбит/сек
Программа кодирования : VirtualDubMod 1.5.10.3 | www.virtualdub-fr.org || (build 2550/release)
Библиотека кодирования : VirtualDubMod build 2550/release
Видео
Идентификатор : 0
Формат : MPEG-4 Visual
Профиль формата : Advanced Simple@L5
Параметр BVOP формата : 2
Параметр QPel формата : Нет
Параметр GMC формата : Без точки перехода
Параметр матрицы формата : Default (MPEG)
Идентификатор кодека : XVID
Идентификатор кодека/Подсказка : XviD
Продолжительность : 1 ч. 26 м.
Битрейт : 1877 Кбит/сек
Ширина : 720 пикселей
Высота : 400 пикселей
Соотношение сторон : 16:9
Частота кадров : 23,976 кадра/сек
Цветовое пространство : YUV
Субдискретизация насыщенности : 4:2:0
Битовая глубина : 8 бит
Тип развёртки : Прогрессивная
Метод сжатия : С потерями
Бит/(Пиксели*Кадры) : 0.272
Размер потока : 1,13 Гбайт (83%)
Библиотека кодирования : XviD 1.2.1 (UTC 2008-12-04)
Аудио
Идентификатор : 1
Формат : AC-3
Формат/Информация : Audio Coding 3
Расширение режима : CM (complete main)
Параметр Endianness формата : Big
Идентификатор кодека : 2000
Продолжительность : 1 ч. 26 м.
Вид битрейта : Постоянный
Битрейт : 384 Кбит/сек
Каналы : 6 каналов
Расположение каналов : Front: L C R, Side: L R, LFE
Частота : 48,0 КГц
Битовая глубина : 16 бит
Метод сжатия : С потерями
Размер потока : 237 Мбайт (17%)
Выравнивание : Разделение по промежуткам
Продолжительность промежутка : 42 мс. (1,00 видеокадр)
Время предзагрузки промежутка : 500 мс.

Скриншоты

 
Кто просматривает тему:

Форум Тема Автор Размер
Metal (Heavy Metal) Ария - Котёл Истории - Live MMXV (RU Universal Music) - 2015 [FLAC, image +.cue, lossless] sergej644 503 MB
Cборники 70х-80х-90х (Ретро) (Pop / Rock / Disco) VA - История Музыки 70 - 2011, MP3, 128 kbps Magnat 653 MB
Сhanson (Шансон) Гриша Заречный - Дорожные истории - 2011, MP3, 320 kbps Magnat 177 MB
Кино СССР ...А зори здесь тихие (Станислав Ростоцкий) [1972, драма, военный, история] DVDRip | Полная версия BOSS 2.83 GB
Бокс, Бои без правил, К1 10 лучших одноударных нокаутов в истории бокса [1897-2012, Бокс, SATRip] Один 777 3.02 GB
Бокс, Бои без правил, К1 10 самых быстрых одноударных нокаутов в истории бокса [1982-2005, Бокс, SATRip, TVRip] Один 777 473 MB
Фильмы 2009 года 1066 - Нормандское завоевание Англии / 1066 - The Battle for Middle Earth (Джастин Харди / Justin Hardy) [2009, Великобритания, боевик, военный, история, DVDRip] VO (SDI Media) + Original Eng TorrentFilm 2.19 GB
Фильмы (HD Rips | 720p, 1080p) 12 лет рабства / 12 Years a Slave (Стив МакКуин / Steve McQueen) [2013, США, Великобритания, драма, биография, история, BDRip 720p] Dub + AVO (Сербин) + Sub Rus,Eng + Original Eng reversefile 8.9 GB
Показать сообщения:    

Текущее время: Сегодня 14:08

Часовой пояс: GMT



Вы не можете начинать темы
Вы не можете отвечать на сообщения
Вы не можете редактировать свои сообщения
Вы не можете удалять свои сообщения
Вы не можете голосовать в опросах
Вы не можете прикреплять файлы к сообщениям
Вы не можете скачивать файлы