История британской науки / BBC. Science Britannica (Гидеон Брэдшоу / Gideon Bradshaw) [2013, документальный, HDTV 1080i]

 
Автор Сообщение

TorrentFilm ®

Пол:

Стаж: 2 года

Сообщений: 7741



Награды: Нет

Торрент-статистика

Создавать темы 03-Янв-2015 00:00

[Цитировать]

История британской науки / Science Britannica
Год выпуска: 2013
Страна: Великобритания
Студия: BBC
Жанр: документальный
Продолжительность: 3x ~00:59:00
Перевод: Двухголосый закадровый - Омикрон
Субтитры: русские, английские
Режиссёр: Гидеон Брэдшоу / Gideon Bradshaw
Рассказчик: Брайан Кокс / Brian Cox
Описание: Профессор Брайан Кокс проведет зрителей сквозь 350 лет британской науки, чтобы показать что такое наука, что за люди ее практикуют, и как она неразрывно связана с прошлым, настоящим и будущим всех и каждого из нас.
Список серий:
1. Монстры Франкенштейна / Frankenstein's Monsters
2. Метод и безумие / Method and Madness
3. Чистое голубое небо / Clear Blue Skies
Доп. информация: За перевод спасибо Михаилу Халецкому (megaman512)
За исходное видео и озвучивание спасибо пользователям HDclub: serin, terminal, RomanTar.
Тип релиза: HDTV 1080i
Контейнер: MKV
Видео: MPEG-4 AVC, 1920x1080 (16:9), 25.000 fps, ~6014 Kbps
Аудио: Russian AC3, 2 ch, 48KHz, 192 Kbps
Аудио: English AC3, 2 ch, 48KHz, 192 Kbps
Формат субтитров: softsub (SRT)

Другие фильмы BBC в HD

MediaInfo

General
Unique ID : 221531383734030288015557842235774317062 (0xA6A9647E84430142BF1FD82DE0E5B206)
Complete name : E:\История британской науки (2013, HDTV 1080i)\1. Монстры Франкенштейна - Frankenstein's Monsters.mkv
Format : Matroska
Format version : Version 4 / Version 2
File size : 2.64 GiB
Duration : 58mn 41s
Overall bit rate mode : Variable
Overall bit rate : 6 436 Kbps
Encoded date : UTC 2014-12-28 14:32:38
Writing application : mkvmerge v7.4.0 ('Circles') 64bit built on Dec 12 2014 12:19:56
Writing library : libebml v1.3.0 + libmatroska v1.4.1
_STATISTICS_WRITING_APP : mkvmerge v7.4.0 ('Circles') 64bit built on Dec 12 2014 12:19:56
_STATISTICS_WRITING_DATE_UTC : 2014-12-28 14:32:38
_STATISTICS_TAGS : BPS DURATION NUMBER_OF_FRAMES NUMBER_OF_BYTES
DURATION : 00:57:56.840000000
NUMBER_OF_FRAMES : 727
NUMBER_OF_BYTES : 64306
Video
ID : 1
Format : AVC
Format/Info : Advanced Video Codec
Format profile : High@L4.0
Format settings, CABAC : Yes
Format settings, ReFrames : 4 frames
Codec ID : V_MPEG4/ISO/AVC
Bit rate mode : Variable
Bit rate : 5 924 Kbps
Maximum bit rate : 40.0 Mbps
Width : 1 920 pixels
Height : 1 080 pixels
Display aspect ratio : 16:9
Frame rate mode : Variable
Original frame rate : 25.000 fps
Color space : YUV
Chroma subsampling : 4:2:0
Bit depth : 8 bits
Scan type : MBAFF
Default : Yes
Forced : No
Color primaries : BT.709
Transfer characteristics : BT.709
Matrix coefficients : BT.709
Audio #1
ID : 2
Format : AC-3
Format/Info : Audio Coding 3
Mode extension : CM (complete main)
Format settings, Endianness : Big
Codec ID : A_AC3
Duration : 58mn 41s
Bit rate mode : Constant
Bit rate : 192 Kbps
Channel(s) : 2 channels
Channel positions : Front: L R
Sampling rate : 48.0 KHz
Bit depth : 16 bits
Compression mode : Lossy
Delay relative to video : -120ms
Stream size : 80.6 MiB (3%)
Language : Russian
Default : Yes
Forced : No
Audio #2
ID : 3
Format : AC-3
Format/Info : Audio Coding 3
Mode extension : CM (complete main)
Format settings, Endianness : Big
Codec ID : A_AC3
Duration : 58mn 41s
Bit rate mode : Constant
Bit rate : 192 Kbps
Channel(s) : 2 channels
Channel positions : Front: L R
Sampling rate : 48.0 KHz
Bit depth : 16 bits
Compression mode : Lossy
Delay relative to video : -120ms
Stream size : 80.6 MiB (3%)
Language : English
Default : No
Forced : No
Text #1
ID : 4
Format : UTF-8
Codec ID : S_TEXT/UTF8
Codec ID/Info : UTF-8 Plain Text
Language : Russian
Default : No
Forced : No
Text #2
ID : 5
Format : UTF-8
Codec ID : S_TEXT/UTF8
Codec ID/Info : UTF-8 Plain Text
Language : English
Default : No
Forced : No

Скриншоты

[Профиль] [ЛС]
Кто просматривает тему:

Форум Тема Автор Размер
Metal (Heavy Metal) Ария - Котёл Истории - Live MMXV (RU Universal Music) - 2015 [FLAC, image +.cue, lossless] sergej644 503 MB
Cборники 70х-80х-90х (Ретро) (Pop / Rock / Disco) VA - История Музыки 70 - 2011, MP3, 128 kbps Magnat 653 MB
Сhanson (Шансон) Гриша Заречный - Дорожные истории - 2011, MP3, 320 kbps Magnat 177 MB
Кино СССР ...А зори здесь тихие (Станислав Ростоцкий) [1972, драма, военный, история] DVDRip | Полная версия BOSS 2.83 GB
Бокс, Бои без правил, К1 10 лучших одноударных нокаутов в истории бокса [1897-2012, Бокс, SATRip] Один 777 3.02 GB
Бокс, Бои без правил, К1 10 самых быстрых одноударных нокаутов в истории бокса [1982-2005, Бокс, SATRip, TVRip] Один 777 473 MB
Фильмы 2009 года 1066 - Нормандское завоевание Англии / 1066 - The Battle for Middle Earth (Джастин Харди / Justin Hardy) [2009, Великобритания, боевик, военный, история, DVDRip] VO (SDI Media) + Original Eng TorrentFilm 2.19 GB
Фильмы (HD Rips | 720p, 1080p) 12 лет рабства / 12 Years a Slave (Стив МакКуин / Steve McQueen) [2013, США, Великобритания, драма, биография, история, BDRip 720p] Dub + AVO (Сербин) + Sub Rus,Eng + Original Eng reversefile 8.9 GB
Показать сообщения:    

Текущее время: Сегодня 18:50

Часовой пояс: GMT



Вы не можете начинать темы
Вы не можете отвечать на сообщения
Вы не можете редактировать свои сообщения
Вы не можете удалять свои сообщения
Вы не можете голосовать в опросах
Вы не можете прикреплять файлы к сообщениям
Вы не можете скачивать файлы