Истории о Деревне Изобретателей / Leiutajateküla lood (Яанно Пылдма, Хейки Эрнитс / Janno Põldma, Heiki Ernits) [2008, мультфильм, детский, сказка, обучающий, DVDRip] Est + Rus Sub

 
Автор Сообщение

TorrentFilm ®

Пол:

Стаж: 2 года

Сообщений: 7741



Награды: Нет

Торрент-статистика

Создавать темы 03-Янв-2016 00:06

[Цитировать]

Истории о Деревне Изобретателей / Leiutajateküla lood
Страна: Эстония
Студия-производитель: Eesti Joonisfilm
Жанр: мультфильм, детский, сказка, обучающий
Продолжительность: 00:10:41
Год выпуска: 2008
Перевод: Субтитры
Русские субтитры: есть
Режиссёры: Яанно Пылдма, Хейки Эрнитс / Janno Põldma, Heiki Ernits
Описание: 10-минутный мультфильм эстонских режиссёров Яанно Пылдма и Хейки Эрнитса (авторов трилогии о приключениях собачки Лотте), вышедший на DVD в качестве бонуса к полнометражной анимационной ленте "Лотте и тайна лунного камня / Lotte ja kuukivi saladus" (2011).
На сей раз Лотте рассказывает зрителям об устройстве жизни в её родной Деревне Изобретателей. Этот мультик из нескольких мини-сюжетов был выпущен в 2008 году к 90-летию Эстонской республики, и авторы с помощью популярного мультгероя ненавязчиво и весело знакомят юных зрителей с основами государственного устройства.

Семпл: http://multi-up.com/920479
Качество: DVDRip
Формат: AVI
Видео: 640x480 (4:3), 25 fps, XviD, 2205 Кбит/сек
Аудио: 224 Кбит/сек, 48000 Гц, 16 бит, 2 канала, AC3 - эстонский
Субтитры: русские внешние .srt

Подробные технические данные

Формат : AVIФормат/Информация : Audio Video InterleaveРазмер файла : 186 МбайтПродолжительность : 10 м.Общий поток : 2439 Кбит/секПрограмма кодирования : VirtualDubMod 1.5.10.2 (build 2540/release)Библиотека кодирования : VirtualDubMod build 2540/release
ВидеоИдентификатор : 0Формат : MPEG-4 VisualПрофиль формата : Advanced Simple@L5Параметр BVOP формата : 2Параметр QPel формата : НетПараметр GMC формата : Без точки переходаПараметр матрицы формата : Default (MPEG)Идентификатор кодека : XVIDИдентификатор кодека/Подсказка : XviDПродолжительность : 10 м.Битрейт : 2205 Кбит/секШирина : 640 пикселейВысота : 480 пикселейСоотношение сторон : 4:3Частота кадров : 25,000 кадров/секЦветовое пространство : YUVСубдискретизация насыщенности : 4:2:0Битовая глубина : 8 битТип развёртки : ПрогрессивнаяМетод сжатия : С потерямиБит/(Пиксели*Кадры) : 0.287Размер потока : 169 Мбайт (90%)Библиотека кодирования : XviD 64
АудиоИдентификатор : 1Формат : AC-3Формат/Информация : Audio Coding 3Расширение режима : CM (complete main)Параметр Endianness формата : BigИдентификатор кодека : 2000Продолжительность : 10 м.Вид битрейта : ПостоянныйБитрейт : 224 Кбит/секКаналы : 2 каналаРасположение каналов : Front: L RЧастота : 48,0 КГцБитовая глубина : 16 битМетод сжатия : С потерямиРазмер потока : 17,1 Мбайт (9%)Выравнивание : Разделение по промежуткамПродолжительность промежутка : 40 мс. (1,00 видеокадр)Время предзагрузки промежутка : 500 мс.
[spoiler="Скриншоты с субтитрами">

Скриншоты [spoiler="Скриншоты с субтитрами

Пример субтитров"]
20
00:01:49,020 --> 00:01:52,837
ПРЕЗИДЕНТ
Деревни Изобретателей
21
00:02:04,752 --> 00:02:08,246
В нашей Деревне Изобретателей
есть президент. Это дядя Клаус.
22
00:02:08,320 --> 00:02:11,560
У него уже с утра дел невпроворот!
23
00:02:11,600 --> 00:02:14,522
Он ходит по деревне
и перерезает ленточки.
24
00:02:14,600 --> 00:02:17,660
Если сам президент посетит поле,
где растёт морковка,
25
00:02:17,700 --> 00:02:19,815
то она вырастет сладкая-пресладкая.
26
00:02:20,779 --> 00:02:25,127
Но больше всего дядя Клаус любит
награждать наших славных спортсменов.
27
00:02:25,180 --> 00:02:28,026
Это с удовольствием делал бы это
несколько раз в день.
28
00:02:30,171 --> 00:02:33,100
А когда к нам прилетают
перелётные птицы,
29
00:02:33,200 --> 00:02:37,024
то наш президент торжественно
приветствует заморских гостей.
30
00:02:37,140 --> 00:02:40,684
А гостей к нам приезжает немало,
все наслышаны о том,
31
00:02:40,800 --> 00:02:44,537
что в карманах штанов президента
каждому что-то найдётся!
32
00:02:48,594 --> 00:02:51,627
Когда у ребёнка
из Деревни Изобретателей
33
00:02:51,680 --> 00:02:54,258
прорежется первый зубик,
34
00:02:54,300 --> 00:02:57,850
то дядя Клаус непременно
подарит ему серебряную ложку.
35
00:02:58,817 --> 00:03:01,725
Дядя Клаус выучил
всевозможные иностранные языки.
36
00:03:01,765 --> 00:03:04,954
Он может хоть целый день
беседовать с каким-нибудь кустом.
37
00:03:06,883 --> 00:03:10,188
Иногда случается, что кто-то
заварит такую кашу,
38
00:03:10,250 --> 00:03:13,107
что самому её никак не расхлебать,
39
00:03:13,140 --> 00:03:16,802
тогда на помощь приходит
дядя Клаус, он всегда всё уладит.
40
00:03:18,806 --> 00:03:22,143
У дяди Клауса очень доброе сердце,
он хочет всем помочь.
[Профиль] [ЛС]
Кто просматривает тему:

Форум Тема Автор Размер
Metal (Heavy Metal) Ария - Котёл Истории - Live MMXV (RU Universal Music) - 2015 [FLAC, image +.cue, lossless] sergej644 503 MB
Cборники 70х-80х-90х (Ретро) (Pop / Rock / Disco) VA - История Музыки 70 - 2011, MP3, 128 kbps Magnat 653 MB
Сhanson (Шансон) Гриша Заречный - Дорожные истории - 2011, MP3, 320 kbps Magnat 177 MB
Кино СССР ...А зори здесь тихие (Станислав Ростоцкий) [1972, драма, военный, история] DVDRip | Полная версия BOSS 2.83 GB
Бокс, Бои без правил, К1 10 лучших одноударных нокаутов в истории бокса [1897-2012, Бокс, SATRip] Один 777 3.02 GB
Бокс, Бои без правил, К1 10 самых быстрых одноударных нокаутов в истории бокса [1982-2005, Бокс, SATRip, TVRip] Один 777 473 MB
Фильмы 2009 года 1066 - Нормандское завоевание Англии / 1066 - The Battle for Middle Earth (Джастин Харди / Justin Hardy) [2009, Великобритания, боевик, военный, история, DVDRip] VO (SDI Media) + Original Eng TorrentFilm 2.19 GB
Фильмы (HD Rips | 720p, 1080p) 12 лет рабства / 12 Years a Slave (Стив МакКуин / Steve McQueen) [2013, США, Великобритания, драма, биография, история, BDRip 720p] Dub + AVO (Сербин) + Sub Rus,Eng + Original Eng reversefile 8.9 GB
Показать сообщения:    

Текущее время: Сегодня 09:09

Часовой пояс: GMT



Вы не можете начинать темы
Вы не можете отвечать на сообщения
Вы не можете редактировать свои сообщения
Вы не можете удалять свои сообщения
Вы не можете голосовать в опросах
Вы не можете прикреплять файлы к сообщениям
Вы не можете скачивать файлы