Истина в вине (2015) SATRip (серии 1-4 из 4)

 
Автор Сообщение

достали все ®

Пол:

Стаж: 1 год 8 месяцев

Сообщений: 6598



Награды: 12 (Подробнее)

За внесенный вклад в развитие сайта (Количество: 1) Mega Releaser 2 (Количество: 1) Top Releaser 2 (Количество: 1)
Торрент-статистика

Создавать темы 04-Май-2015 06:02

[Цитировать]

-Истина в вине (2015) SATRip (серии 1-4 из 4)- Производство: Россия, Тесей Продакшн
Жанр: Драма, мелодрама
Режиссер: Дмитрий Сорокин
Актеры: Никита Зверев, Яна Шивкова (Николаева), Елена Ветрова, Андрей Олиференко, Анастасия Сорокина, Данила Якушев, Игорь Кулачко, Владимир Румянцев, Евгений Кушпель, Олег Метелев
Описание:
Жизнь топ-менеджера Виктории — это непрерывная гонка за успехом. В ее мире нет места для семейных ценностей и душевной теплоты, и Викторию это устраивает. Она уверена, что все покупается и все продается, вопрос лишь в цене. Но однажды, потеряв все, она вынуждена вернуться в фамильную усадьбу, которую завещал ей дедушка-винодел. Там Виктория сталкивается с чуждым незнакомым ей миром, частью которого она когда-то была. Вместе с родной землей Виктория обретает любимое дело и находит любовь — своего друга детства. Вместе они вступают в борьбу за свою землю, на которую претендуют рейдеры…

Дата российской премьеры: 3 мая 2015
Продолжительность: ~ 00:45:00 серия
Качество видео: SATRip
Видеокодек: DivX 5
Битрейт видео: ~1701 Кбит/с
Размер кадра: 720x400
Аудиокодек: MP3, 2 ch
Битрейт аудио: 128 Кбит/с

MediaInfo:

Общее
Полное имя : C:\NNM\Истина в вине\Istina v vine 2015 SATRip\Istina v vine 01.avi
Формат : AVI
Формат/Информация : Audio Video Interleave
Размер файла : 612 Мбайт
Продолжительность : 46 м.
Общий поток : 1842 Кбит/сек
Программа кодирования : transcode-1.1.5
Видео
Идентификатор : 0
Формат : MPEG-4 Visual
Параметр BVOP формата : Да
Параметр QPel формата : Нет
Параметр GMC формата : Без точки перехода
Параметр матрицы формата : Default (H.263)
Идентификатор кодека : DX50
Идентификатор кодека/Подсказка : DivX 5
Продолжительность : 46 м.
Битрейт : 1701 Кбит/сек
Ширина : 720 пикселей
Высота : 400 пикселей
Соотношение сторон : 16:9
Частота кадров : 25,000 кадров/сек
Цветовое пространство : YUV
Субдискретизация насыщенности : 4:2:0
Битовая глубина : 8 бит
Тип развёртки : Прогрессивная
Метод сжатия : С потерями
Бит/(Пиксели*Кадры) : 0.236
Размер потока : 565 Мбайт (92%)
Библиотека кодирования : Intel(R) MPEG-4 encoder based on Intel(R) IPP 6.1 build 137.20[6.1.137.763]
Аудио
Идентификатор : 1
Формат : MPEG Audio
Версия формата : Version 1
Профиль формата : Layer 3
Режим : Joint stereo
Расширение режима : MS Stereo
Идентификатор кодека : 55
Идентификатор кодека/Подсказка : MP3
Продолжительность : 46 м.
Вид битрейта : Постоянный
Битрейт : 128 Кбит/сек
Каналы : 2 канала
Частота : 48,0 КГц
Метод сжатия : С потерями
Размер потока : 42,5 Мбайт (7%)
Выравнивание : Соединение по промежуткам
Продолжительность промежутка : 24 мс. (0,60 видеокадр)
Время предзагрузки промежутка : 48 мс.
Библиотека кодирования : LAME3.98.2

Скриншоты:



[Профиль] [ЛС]
Кто просматривает тему:

Форум Тема Автор Размер
Action Death to Spies: Moment of Truth / Смерть шпионам: Момент истины [L] [RUS / RUS] (2008) TorrentFilm 4.01 GB
Фильмы 2011 года Дети славы / Свобода и любовь / Szabadsag Szerelem / Children Of Glory (Кристина Года / Krisztina Goda) [2006, Венгрия, Драма, военный, история, спорт, HDRip] VO TorrentFilm 1.46 GB
Фильмы 2015 года Идеалист / Idealisten (Кристина Розендаль / Christina Rosendahl) [2015, Дания, триллер, WEB-DLRip] Sub Rus + Original Dan TorrentFilm 1.47 GB
Отечественные cериалы Истина в вине [02x01-02 из 02] (2016) HDTVRip достали все 2.73 GB
Фильмы (HD Rips | 720p, 1080p) Кристина / Christine (Джон Карпентер) [1983 г., Ужасы, триллер, драма, детектив, BDRip] crasyman 8.98 GB
Научная и техническая литература Кристина Сухаревич - Шитье. Самый полный и понятный самоучитель (2014) PDF достали все 27 MB
Документальные HD Люди, сделавшие Землю круглой / Фильмы: 1-4 из 4 (Кристина Козлова) [2014, Документальный, HDTV 1080i] TorrentFilm 14.92 GB
Документальные HD Люди, Сделавшие Землю Круглой: Проект Валдиса Пельша и Дмитрия Хаустова. Серии 1-2 (из 4) (Кристина Козлова) [2015, Документальный, HDTV 720p] TorrentFilm 5.91 GB
Показать сообщения:    

Текущее время: Сегодня 11:52

Часовой пояс: GMT



Вы не можете начинать темы
Вы не можете отвечать на сообщения
Вы не можете редактировать свои сообщения
Вы не можете удалять свои сообщения
Вы не можете голосовать в опросах
Вы не можете прикреплять файлы к сообщениям
Вы не можете скачивать файлы