Истекающий кровью / The Bleeding (2009) BDRip 1080p

 
Автор Сообщение

sergej644 ®

Пол:

Стаж: 4 года 11 месяцев

Сообщений: 6042

Откуда: Soviet Union



Награды: Нет

Торрент-статистика

Создавать темы 16-Фев-2015 18:45

[Цитировать]

Название: Истекающий кровью
Оригинальное название: The Bleeding
Год выхода: 2009
Жанр: Ужасы, боевик
Режиссер: Чарли Пичерни
В ролях: Майкл Мэдсен, Винни Джонс, Арманд Ассанте, Уильям МакНамара, DMX, Кэтерин фон Драхенберг, Криста Эйн, Кристал Лоннеберг, Ванесса Вандер Плюм, Кэти Сью Холторф
О фильме:
В центре сюжета картины - бывший солдат, разыскивающий убийц своих родителей. Поиски заводят его на бывший завод по производству химического оружия, превращенный в ночной клуб. А в этом экзотическом месте обитает, как оказывается, целый клан вампиров.

Страна: США, Iron Bull Films
Продолжительность: 01:23:35
Перевод: Профессиональный двухголосый
Кодек: H.264
Качество: BDRip 1080p
Видео: MPEG-4 AVC, 10555 Кбит/с, 1920x800, 23.976 кадр/с
Звук: Русский (AC3, 6 ch, 448 Кбит/с), английский (DTS, 6 ch, 1510 Кбит/с)
Субтитры: Английские

Инфо-файл

Полное имя : E:Раздачи_EThe.Bleeding.2009.x264.BDRip.1080p.NovaLan.mkv
Формат : Matroska
Версия формата : Version 4 / Version 2
Размер файла : 7,30 Гбайт
Продолжительность : 1 ч. 23 м.
Общий поток : 12,5 Мбит/сек
Название фильма : The Bleeding 2009 - NovaLan
Дата кодирования : UTC 2015-02-05 15:27:56
Программа кодирования : mkvmerge v7.5.0 ('Glass Culture') 64bit built on Jan 4 2015 16:48:44
Библиотека кодирования : libebml v1.3.1 + libmatroska v1.4.2
DURATION : 01:15:06.586000000
NUMBER_OF_FRAMES : 600
NUMBER_OF_BYTES : 18488
_STATISTICS_WRITING_APP : mkvmerge v7.5.0 ('Glass Culture') 64bit built on Jan 4 2015 16:48:44
_STATISTICS_WRITING_DATE_UTC : 2015-02-05 15:27:56
_STATISTICS_TAGS : BPS DURATION NUMBER_OF_FRAMES NUMBER_OF_BYTES
Видео
Идентификатор : 1
Формат : AVC
Формат/Информация : Advanced Video Codec
Профиль формата : High@L4.1
Параметр CABAC формата : Да
Параметр ReFrames формата : 4 кадра
Идентификатор кодека : V_MPEG4/ISO/AVC
Продолжительность : 1 ч. 23 м.
Битрейт : 10,6 Мбит/сек
Ширина : 1920 пикселей
Высота : 800 пикселей
Соотношение сторон : 2,40:1
Частота кадров : 23,976 кадра/сек
Цветовое пространство : YUV
Субдискретизация насыщенности : 4:2:0
Битовая глубина : 8 бит
Тип развёртки : Прогрессивная
Бит/(Пиксели*Кадры) : 0.287
Размер потока : 6,02 Гбайт (82%)
Заголовок : Sergei7721
Библиотека кодирования : x264 core 133 r2334 a3ac64b
Настройки программы : cabac=1 / ref=4 / deblock=1:-1:-1 / analyse=0x3:0x113 / me=umh / subme=11 / psy=1 / psy_rd=1.00:0.20 / mixed_ref=1 / me_range=24 / chroma_me=1 / trellis=2 / 8x8dct=1 / cqm=0 / deadzone=21,11 / fast_pskip=0 / chroma_qp_offset=-3 / threads=12 / lookahead_threads=1 / sliced_threads=0 / nr=0 / decimate=0 / interlaced=0 / bluray_compat=0 / constrained_intra=0 / bframes=6 / b_pyramid=2 / b_adapt=2 / b_bias=0 / direct=3 / weightb=1 / open_gop=0 / weightp=2 / keyint=240 / keyint_min=23 / scenecut=40 / intra_refresh=0 / rc_lookahead=40 / rc=2pass / mbtree=0 / bitrate=10555 / ratetol=1.0 / qcomp=0.60 / qpmin=0 / qpmax=69 / qpstep=4 / cplxblur=20.0 / qblur=0.5 / vbv_maxrate=50000 / vbv_bufsize=62500 / nal_hrd=none / ip_ratio=1.40 / pb_ratio=1.30 / aq=1:1.00
Default : Да
Forced : Нет
DURATION : 01:23:34.969000000
NUMBER_OF_FRAMES : 120239
NUMBER_OF_BYTES : 6614539390
_STATISTICS_WRITING_APP : mkvmerge v7.5.0 ('Glass Culture') 64bit built on Jan 4 2015 16:48:44
_STATISTICS_WRITING_DATE_UTC : 2015-02-05 15:27:56
_STATISTICS_TAGS : BPS DURATION NUMBER_OF_FRAMES NUMBER_OF_BYTES
Аудио #1
Идентификатор : 2
Формат : AC-3
Формат/Информация : Audio Coding 3
Расширение режима : CM (complete main)
Параметр Endianness формата : Big
Идентификатор кодека : A_AC3
Продолжительность : 1 ч. 23 м.
Вид битрейта : Постоянный
Битрейт : 448 Кбит/сек
Каналы : 6 каналов
Расположение каналов : Front: L C R, Side: L R, LFE
Частота : 48,0 КГц
Битовая глубина : 16 бит
Метод сжатия : С потерями
Размер потока : 268 Мбайт (4%)
Язык : Russian
Default : Да
Forced : Нет
Аудио #2
Идентификатор : 3
Формат : DTS
Формат/Информация : Digital Theater Systems
Идентификатор кодека : A_DTS
Продолжительность : 1 ч. 23 м.
Вид битрейта : Постоянный
Битрейт : 1510 Кбит/сек
Каналы : 6 каналов
Расположение каналов : Front: L C R, Side: L R, LFE
Частота : 48,0 КГц
Битовая глубина : 16 бит
Метод сжатия : С потерями
Размер потока : 903 Мбайт (12%)
Язык : English
Default : Нет
Forced : Нет
Текст
Идентификатор : 4
Формат : UTF-8
Идентификатор кодека : S_TEXT/UTF8
Идентификатор кодека/Информация : UTF-8 Plain Text
Язык : English
Default : Нет
Forced : Нет
Меню
00:00:00.000 : en:00:00:00.000
00:06:59.961 : en:00:06:59.961
00:13:59.964 : en:00:13:59.964
00:20:59.967 : en:00:20:59.967
00:27:59.928 : en:00:27:59.928
00:34:59.931 : en:00:34:59.931
00:41:59.934 : en:00:41:59.934
00:48:59.895 : en:00:48:59.895
00:55:59.898 : en:00:55:59.898
01:02:59.942 : en:01:02:59.942
01:09:59.945 : en:01:09:59.945
01:19:59.920 : en:01:19:59.920
01:23:34.801 : en:01:23:34.801
01:23:34.968 : en:01:23:34.968
Релиз группа NovaLan
Автор релиза Sergei7721

Скриншоты

[Профиль] [ЛС]
Показать сообщения:    

Текущее время: Сегодня 20:04

Часовой пояс: GMT



Вы не можете начинать темы
Вы не можете отвечать на сообщения
Вы не можете редактировать свои сообщения
Вы не можете удалять свои сообщения
Вы не можете голосовать в опросах
Вы не можете прикреплять файлы к сообщениям
Вы не можете скачивать файлы