Испытательный срок (Игорь Нурисламов) [2014, Россия, мелодрама, романтическая комедия, HDTV 1080i]

 
Автор Сообщение

TorrentFilm ®

Пол:

Стаж: 2 года

Сообщений: 7741



Награды: Нет

Торрент-статистика

Создавать темы 03-Май-2015 00:03

[Цитировать]

Испытательный срок
Год выпуска: 2014
Производство: Россия, Ланд Синема
Жанр: Мелодрама, романтическая комедия
Продолжительность: 01:36:02
Субтитры: нет
Режиссёр:Игорь Нурисламов
В ролях: Михаил Тарабукин, Поля Полякова, Роман Притула, Андрей Аксёнов, Артём Анчуков, Елена Мартыненко, Дмитрий Комков, Даниил Комков, Алексей Фокин, Егор Бакулин, Геша Меньшиков, Полина Красавина, Оксана Скакун, Алёна Кучкова, Сергей Уманов, Дмитрий Макеев, Виктор Выбриенко, Полина Воронова
Описание: Гражданский муж Ксюши проворовался и скрывается от правосудия и обманутых клиентов. Всё имущество описано и отобрано. Матери-одиночке позарез надо найти работу. Дайте ей только шанс и она перевернет мир! Но… ветрянка у двоих ее близнецов рушит все планы. Новая работа могла бы разом решить все проблемы. Но как быть, если начальство не переносит слов «больничный-дети» и ни за что не возьмет на работу мать двоих малышей? «Багаж» решено скрыть, а достоинства приукрасить. Ей бы только продержаться испытательный срок, который совпал с 21 днем карантина. На помощь отчаявшейся мамочке приходит жилец, инфантильный и безответственный разгильдяй.

Качество: HDTV 1080i
Контейнер: TS
Видео: MPEG4 Video (H264) 1920x1080, ~ 7 355 Кбит/сек, 25.00fps 0.142 bit/pixel
Аудио: MP2, 2 канала, 48,0 КГц, ~320 kbps
Сторонней рекламы нет!

MI

GeneralID : 1 (0x1)Complete name : Испытательный срок (2014)\Ispytatelniy.srok.2013.HDTV.1080i.tsFormat : MPEG-TSFile size : 5.42 GiBDuration : 1h 36mnOverall bit rate mode : VariableOverall bit rate : 8 078 Kbps
VideoID : 2741 (0xAB5)Menu ID : 1044 (0x414)Format : AVCFormat/Info : Advanced Video CodecFormat profile : Main@L4.0Format settings, CABAC : YesFormat settings, ReFrames : 4 framesCodec ID : 27Duration : 1h 36mnBit rate : 7 355 KbpsWidth : 1 920 pixelsHeight : 1 080 pixelsDisplay aspect ratio : 16:9Frame rate : 25.000 fpsColor space : YUVChroma subsampling : 4:2:0Bit depth : 8 bitsScan type : InterlacedScan order : Top Field FirstBits/(Pixel*Frame) : 0.142Stream size : 4.93 GiB (91%)Color primaries : BT.709Transfer characteristics : BT.709Matrix coefficients : BT.709
AudioID : 2742 (0xAB6)Menu ID : 1044 (0x414)Format : MPEG AudioFormat version : Version 1Format profile : Layer 2Codec ID : 3Duration : 1h 36mnBit rate mode : ConstantBit rate : 320 KbpsChannel count : 2 channelsSampling rate : 48.0 KHzCompression mode : LossyStream size : 220 MiB (4%)Language : Russian
Раздача группы:
Отдельное спасибо daboen за предоставление материала.

Скриншоты

Скриншот с названием фильма

[Профиль] [ЛС]
Кто просматривает тему:

Форум Тема Автор Размер
Фильмы (HD DVD, Blu-ray и BDRemux) Бегущий в лабиринте: Испытание огнём / Maze Runner: The Scorch Trials (2015) BDRemux 1080p BOSS 28.8 GB
Фильмы (HD Rips | 720p, 1080p) Бегущий в лабиринте: Испытание огнём / Maze Runner: The Scorch Trials (2015) BDRip 1080p | Лицензия Russian Mafia 10.25 GB
Фильмы (HD Rips | 720p, 1080p) Бегущий в лабиринте: Испытание огнём / Maze Runner: The Scorch Trials (2015) BDRip 720p | Лицензия Russian Mafia 5.66 GB
Фильмы (HD DVD, Blu-ray и BDRemux) Бегущий в лабиринте: Испытание огнём / Maze Runner: The Scorch Trials (2015) Blu-ray EUR | Лицензия достали все 44.74 GB
Фильмы (DVD 5/9) Бегущий в лабиринте: Испытание огнём / Maze Runner: The Scorch Trials (2015) DVD5 BOSS 4.36 GB
Фильмы 2015 года Бегущий в лабиринте: Испытание огнём / Maze Runner: The Scorch Trials (2015) HDRip | Лицензия достали все 1.37 GB
Фильмы 2015 года Бегущий в лабиринте: Испытание огнём / Maze Runner: The Scorch Trials (Уэс Болл / Wes Ball) [2015, США, фантастика, боевик, триллер, BDRip-AVC] Dub + Original (Eng) + Sub (Rus, Eng) TorrentFilm 2.18 GB
Фильмы 2015 года Бегущий в лабиринте: Испытание огнём / Maze Runner: The Scorch Trials (Уэс Болл / Wes Ball) [2015, США, фантастика, боевик, триллер, BDRip-AVC] Dub + Sub (Rus, Eng) TorrentFilm 1.46 GB
Показать сообщения:    

Текущее время: Сегодня 14:29

Часовой пояс: GMT



Вы не можете начинать темы
Вы не можете отвечать на сообщения
Вы не можете редактировать свои сообщения
Вы не можете удалять свои сообщения
Вы не можете голосовать в опросах
Вы не можете прикреплять файлы к сообщениям
Вы не можете скачивать файлы