Искатели приключений (Максим Воронков) [2012, Россия, комедия, приключения, DVD5 (Сжатый)] исх. R5 + Original Rus

 
Автор Сообщение

TorrentFilm ®

Пол:

Стаж: 1 год 11 месяцев

Сообщений: 7741



Награды: Нет

Торрент-статистика

Создавать темы 01-Янв-2016 00:09

[Цитировать]

Искатели приключений
Страна: Россия
Жанр: комедия, приключения
Год выпуска: 2012
Продолжительность: 01:41:15
Перевод: Оригинал [Лицензия]
Cубтитры: нет
Оригинальная аудиодорожка: русский
Режиссер: Максим Воронков
В ролях: Валерия Кудрявцева, Анатолий Пашинин, Игорь Гаспарян, Александр Яцко, Владимир Зайцев, Илья Олейников, Александр Семчев, Иннокентий Тарабара, Юрий Кузнецов-Таёжный, Николай Дроздов
Описание: Что может быть опаснее, чем поиски сокровищ? Если ты готов к схваткам с местными гангстерами, погоням и другим острым ощущениям — дерзай! Так и сделали трое азартных друзей — пилот Дэн, гонщик Сергей и красавица Софи, отправившись в экзотический Тайланд на поиски затонувшего сундука с драгоценностями монахов. Следуя указателям на карте, оставленной Софи ее дедушкой, троица зафрахтовав яхту, выходит в открытое море….
Бонусы: нет
Меню: русское, статичное, озвученное
Тип релиза: DVD5 (Сжатый)
Контейнер: DVD-Video
Видео: PAL 16:9 (720x576) 4 708 Kbps
Аудио: Russian (Dolby AC3, 6 ch) 448 Kbps
Аудио 2: Russian (Dolby AC3, 2 ch) 192 Kbps
http://www.youtube.com/watch?v=664eq7BXQcM

Доп. информация

Обработано в DVDRemake Pro
Видео не сжималось.
Удалёно: заставки и предупреждение.

MediaInfo

General
Complete name : D:\_Video\Iskateli.priklutsheniy.2012.DVD5\VIDEO_TS\VTS_03_1.VOB
Format : MPEG-PS
File size : 1 024 MiB
Duration : 26mn 14s
Overall bit rate : 5 457 Kbps
Video
ID : 224 (0xE0)
Format : MPEG Video
Format version : Version 2
Format profile : Main@Main
Format settings, BVOP : Yes
Format settings, Matrix : Default
Format settings, GOP : M=3, N=12
Duration : 26mn 14s
Bit rate mode : Variable
Bit rate : 4 708 Kbps
Maximum bit rate : 8 400 Kbps
Width : 720 pixels
Height : 576 pixels
Display aspect ratio : 16:9
Frame rate : 25.000 fps
Standard : PAL
Color space : YUV
Chroma subsampling : 4:2:0
Bit depth : 8 bits
Scan type : Interlaced
Scan order : Top Field First
Compression mode : Lossy
Bits/(Pixel*Frame) : 0.454
Stream size : 884 MiB (86%)
Audio #1
ID : 189 (0xBD)-128 (0x80)
Format : AC-3
Format/Info : Audio Coding 3
Mode extension : CM (complete main)
Muxing mode : DVD-Video
Duration : 26mn 13s
Bit rate mode : Constant
Bit rate : 192 Kbps
Channel(s) : 2 channels
Channel positions : Front: L R
Sampling rate : 48.0 KHz
Bit depth : 16 bits
Compression mode : Lossy
Stream size : 36.0 MiB (4%)
Audio #2
ID : 189 (0xBD)-129 (0x81)
Format : AC-3
Format/Info : Audio Coding 3
Mode extension : CM (complete main)
Muxing mode : DVD-Video
Duration : 26mn 13s
Bit rate mode : Constant
Bit rate : 448 Kbps
Channel(s) : 6 channels
Channel positions : Front: L C R, Side: L R, LFE
Sampling rate : 48.0 KHz
Bit depth : 16 bits
Compression mode : Lossy
Stream size : 84.0 MiB (8%)
Menu

DVDInfo

Title: Bob
Size: 3.88 Gb ( 4 066 690 KBytes ) - DVD-5
Enabled regions: 1, 2, 3, 4, 5, 6, 7, 8
VTS_01 :
Play Length:
Video: PAL 4:3 (720x576) VBR
Audio:
Russian (Dolby AC3, 2 ch)
VTS_02 :
Play Length:
Video: PAL 16:9 (720x576) VBR, Auto Pan&Scan
Audio:
Russian (Dolby AC3, 2 ch)
VTS_03 :
Play Length: 01:41:15
Video: PAL 16:9 (720x576) VBR, Auto Pan&Scan
Audio:
Russian (Dolby AC3, 2 ch)
Russian (Dolby AC3, 6 ch)

Cкриншот финального проекта

Скриншоты меню

Скриншоты



Раздача от группы:
[Профиль] [ЛС]
Кто просматривает тему:

Форум Тема Автор Размер
Разное Журнал «Искатель» изд-ва «Молодая гвардия» (253 выпуска) [1961-2014, Фантастика, детективы, приключения, FB2, DJVU] Garik014 446 MB
Криминальная документалистика Искатели - "Дракон Голубых озер" [2014, документальный, DVB] reversefile 614 MB
Фильмы 2010 года Искатели могил / Grave Encounters (Братья Вишес / The Vicious Brothers) [2010, Канада, Ужасы, триллер, BDRip] MVO (R5) + Original (Eng) + Subs (Rus, Ukr, Eng) reversefile 1.71 GB
Фильмы (DVD 5/9) Искатели приключений (Максим Воронков) [2012, Россия, комедия, приключения, DVD9] R5 Original Rus TorrentFilm 4.54 GB
Фильмы (HD Rips | 720p, 1080p) Искатели приключений (Максим Воронков) [2012, Россия, Комедия, приключения, HDTV 1080i] reversefile 6.3 GB
Зарубежные сериалы Искатели сокровищ / Detectorists [S02x01-06 из 06] (2015) HDTVRip 720р от KinoRay & Lord32x Studio | L1 достали все 3.58 GB
Зарубежные сериалы Искатели сокровищ / Detectorists [S02x01-06 из 06] (2015) HDTVRip от KinoRay & Lord32x Studio | L1 достали все 1.18 GB
Фильмы (HD DVD, Blu-ray и BDRemux) Искатель воды / The Water Diviner (2014) BDRemux 1080p от HDClub | D, A | iTunes Russian Mafia 30.69 GB
Показать сообщения:    

Текущее время: Сегодня 20:05

Часовой пояс: GMT



Вы не можете начинать темы
Вы не можете отвечать на сообщения
Вы не можете редактировать свои сообщения
Вы не можете удалять свои сообщения
Вы не можете голосовать в опросах
Вы не можете прикреплять файлы к сообщениям
Вы не можете скачивать файлы