Искатели могил / Grave Encounters (Братья Вишес / The Vicious Brothers) [2010, Канада, Ужасы, триллер, BDRip] MVO (R5) + Original (Eng) + Subs (Rus, Ukr, Eng)

 
Автор Сообщение

reversefile ®

Пол:

Стаж: 4 года 5 месяцев

Сообщений: 842

Откуда: ReverseFile.org



Награды: Нет

Торрент-статистика

Создавать темы 13-Авг-2014 10:04

[Цитировать]

Искатели могил / Grave Encounters
«В марте 2003 года операторы реалити-шоу снимали сюжет в заброшенной психиатрической больнице, они искали доказательства существования жизни после смерти... и они нашли их»
- Год выпуска: 2010
Выпущено: Канада / Twin Engine Films
Жанр: ужасы, триллер
Продолжительность: 01:33:33
Перевод: Профессиональный (многоголосый закадровый) R5 + Оригинальная дорожка
Субтитры: Русские, Украинские, Английские (внешние .srt*)-Режиссер:
Братья Вишес / The Vicious Brothers-В ролях:
Шон Роджерсон (Lance Preston), Мервин Мондесер (T.C. Gibson), Эшли Грызко (Sasha Parker), МакКензи Грэй (Houston Gray), Хуан Ридингер (Matt White), Бен Уилкинсон (Jerry Hartfield), Шон МакДональд (Morgan Turner), Артур Корбер (Dr. Arthur Friedkin), Боб Рэти (Kenny Sandavol), Фред Китинг (Gary Crawford)-Описание:
Участники телевизионного шоу охотников за привидениями «Искатели» во главе с Лэнсом Прэстоном соглашаются провести ночь в психиатрической лечебнице, о которой давно ходят жуткие легенды. Запертые на ночь в большом здании больницы «искатели» быстро обнаружили, что теперь бороться с призраками придется всерьез, а не понарошку, так что дожить до утра у них нет никаких шансов…-IMDB | КиноПоиск | Сэмпл |-Качество: BDRip [BDRemux / Кинозал]
Формат: AVI
Видео: 704x400 (1.76:1), 24.000 fps, XviD build 73 ~1840 kbps avg, 0.27 bit/pixel
Аудио #1: 48 kHz, AC3 Dolby Digital, 3/2 (L,C,R,l,r) + LFE ch, ~384.00 kbps avg (RUS)
Аудио #2: 48 kHz, AC3 Dolby Digital, 3/2 (L,C,R,l,r) + LFE ch, ~384.00 kbps avg (ENG) отдельно
-

Скриншоты

MediaInfo

General
Complete name                            : D:\Iskateli_mogil_2010_BDRip_by_Dalemake.avi
Format                                   : AVI
Format/Info                              : Audio Video Interleave
File size                                : 1.46 GiB
Duration                                 : 1h 33mn
Overall bit rate                         : 2 234 Kbps
Writing application                      : VirtualDubMod 1.5.10.3 | www.virtualdub-fr.org || (build 2550/release)
Writing library                          : VirtualDubMod build 2550/release
Video
ID                                       : 0
Format                                   : MPEG-4 Visual
Format profile                           : Advanced Simple@L5
Format settings, BVOP                    : 1
Format settings, QPel                    : No
Format settings, GMC                     : No warppoints
Format settings, Matrix                  : Custom
Codec ID                                 : XVID
Codec ID/Hint                            : XviD
Duration                                 : 1h 33mn
Bit rate                                 : 1 841 Kbps
Width                                    : 704 pixels
Height                                   : 400 pixels
Display aspect ratio                     : 16:9
Frame rate                               : 24.000 fps
Color space                              : YUV
Chroma subsampling                       : 4:2:0
Bit depth                                : 8 bits
Scan type                                : Progressive
Compression mode                         : Lossy
Bits/(Pixel*Frame)                       : 0.272
Stream size                              : 1.20 GiB (82%)
Writing library                          : XviD 73
Audio
ID                                       : 1
Format                                   : AC-3
Format/Info                              : Audio Coding 3
Mode extension                           : CM (complete main)
Format settings, Endianness              : Big
Codec ID                                 : 2000
Duration                                 : 1h 33mn
Bit rate mode                            : Constant
Bit rate                                 : 384 Kbps
Channel(s)                               : 6 channels
Channel positions                        : Front: L C R, Side: L R, LFE
Sampling rate                            : 48.0 KHz
Bit depth                                : 16 bits
Compression mode                         : Lossy
Stream size                              : 257 MiB (17%)
Alignment                                : Split accross interleaves
Interleave, duration                     : 42 ms (1.00 video frame)
Interleave, preload duration             : 500 ms
-
[Профиль] [ЛС]

Создавать темы 06-Авг-2015 23:18 (спустя 11 месяцев 24 дня)

Топик был перенесен из форума Фильмы до 2014 года в форум Фильмы до 2012 года
sergej644
 

Создавать темы 12-Июн-2016 07:54 (спустя 1 год 9 месяцев)

Топик был перенесен из форума Фильмы 2011 года в форум Фильмы 2010 года
Russian Mafia
 
Кто просматривает тему:

Форум Тема Автор Размер
Разное Журнал «Искатель» изд-ва «Молодая гвардия» (253 выпуска) [1961-2014, Фантастика, детективы, приключения, FB2, DJVU] Garik014 446 MB
Криминальная документалистика Искатели - "Дракон Голубых озер" [2014, документальный, DVB] reversefile 614 MB
Фильмы (DVD 5/9) Искатели приключений (Максим Воронков) [2012, Россия, комедия, приключения, DVD5 (Сжатый)] исх. R5 + Original Rus TorrentFilm 3.88 GB
Фильмы (DVD 5/9) Искатели приключений (Максим Воронков) [2012, Россия, комедия, приключения, DVD9] R5 Original Rus TorrentFilm 4.54 GB
Фильмы (HD Rips | 720p, 1080p) Искатели приключений (Максим Воронков) [2012, Россия, Комедия, приключения, HDTV 1080i] reversefile 6.3 GB
Зарубежные сериалы Искатели сокровищ / Detectorists [S02x01-06 из 06] (2015) HDTVRip 720р от KinoRay & Lord32x Studio | L1 достали все 3.58 GB
Зарубежные сериалы Искатели сокровищ / Detectorists [S02x01-06 из 06] (2015) HDTVRip от KinoRay & Lord32x Studio | L1 достали все 1.18 GB
Фильмы (HD DVD, Blu-ray и BDRemux) Искатель воды / The Water Diviner (2014) BDRemux 1080p от HDClub | D, A | iTunes Russian Mafia 30.69 GB
Показать сообщения:    

Текущее время: Сегодня 02:31

Часовой пояс: GMT



Вы не можете начинать темы
Вы не можете отвечать на сообщения
Вы не можете редактировать свои сообщения
Вы не можете удалять свои сообщения
Вы не можете голосовать в опросах
Вы не можете прикреплять файлы к сообщениям
Вы не можете скачивать файлы