Искатели - "Дракон Голубых озер" [2014, документальный, DVB]

 
Автор Сообщение

reversefile ®

Пол:

Стаж: 4 года 5 месяцев

Сообщений: 842

Откуда: ReverseFile.org



Награды: Нет

Торрент-статистика

Создавать темы 11-Авг-2014 06:20

[Цитировать]

Искатели - "Дракон Голубых озер" .
Год выпуска: 2014
Страна: Россия
Жанр: Документальный
Продолжительность: 00:44:01
Перевод: Не требуется

Описание

Цикл познавательно-приключенческих программ, посвященный общественно значимым событиям истории России и зарубежья, а также частным историям известных людей, которые оставили потомкам много вопросов и тайн. Жанр цикла – историческое расследование, "телевизионные приключения для взрослых". Чтобы разгадать очередную тайну, "Искатели" исследуют как летописные источники, так и находки, обнаруженные непосредственно на месте исторических событий .
В выпуске: В июне 1975 года в милицию города Мяделя (Белорусская ССР) поступил звонок: в заповеднике "Голубые озера" пропало трое туристов. К поискам подключили солдат срочной службы. Искали пять дней. И нашли. Туристы были живы, прятались в чаще леса, и выглядели смертельно напуганными… Диагноз, поставленный врачом - нервное расстройство, возникшее на почве болезненного страха. Что же так напугало любителей отдыха на природе?
По словам туристов, на Голубых озерах они столкнулись с необъяснимыми явлениями. Ночью над озером появились светящиеся шары, а в самом центре водоема возникла голова огромного чудовища, которое быстро поплыло рывками… С тех пор многие видят на Голубых озерах странное существо, похожее то ли на змею, то ли на дракона. Что это? Выдумка или факт? Должно же быть объяснение тем странным, аномальным явлениям, которые и сейчас происходят на Голубых озерах?
Качество видео: DVB
Формат видео: MPEG-PS
Видео: MPEG2 Video, 720x576 (4:3), 25 fps, 1700 kbps
Аудио: MPEG Audiо, 2 сh, 48 kHz, 192 kbps
Трансляция спутникового канала:

MediaInfo

G:\Искатели. Дракон Голубых озер. (2014)_DVB by SLuMeP.mpg
General
Complete name : G:\Искатели. Дракон Голубых озер. (2014)_DVB by SLuMeP.mpg
Format : MPEG-PS
File size : 614 MiB
Duration : 44mn 1s
Overall bit rate mode : Variable
Overall bit rate : 1 951 Kbps
Writing library : (c) 1998-2010 Womble Multimedia, Inc. / MPEG Video Wizard DVD 5.0.0.114 (01/2010) / Apr 20 2010
Video #224
ID : 224 (0xE0)
Format : MPEG Video
Format version : Version 2
Format profile : Main@Main
Format settings, BVOP : Yes
Format settings, Matrix : Custom
Format settings, GOP : M=3, N=36
Duration : 44mn 1s
Bit rate mode : Variable
Bit rate : 1 720 Kbps
Maximum bit rate : 15.0 Mbps
Width : 720 pixels
Height : 576 pixels
Display aspect ratio : 4:3
Frame rate : 25.000 fps
Standard : PAL
Color space : YUV
Chroma subsampling : 4:2:0
Bit depth : 8 bits
Scan type : Interlaced
Scan order : Top Field First
Compression mode : Lossy
Bits/(Pixel*Frame) : 0.166
Stream size : 542 MiB (88%)
Writing library : (c) 1998-2010 Womble Multimedia, Inc. / MPEG Video Wizard DVD 5.0.0.114 (01/2010) / Apr 20 2010
Audio #192
ID : 192 (0xC0)
Format : MPEG Audio
Format version : Version 1
Format profile : Layer 2
Duration : 44mn 1s
Bit rate mode : Constant
Bit rate : 192 Kbps
Channel(s) : 2 channels
Sampling rate : 48.0 KHz
Compression mode : Lossy
Stream size : 60.5 MiB (10%)
Menu

Скриншоты

[Профиль] [ЛС]
Кто просматривает тему:

Форум Тема Автор Размер
Разное Журнал «Искатель» изд-ва «Молодая гвардия» (253 выпуска) [1961-2014, Фантастика, детективы, приключения, FB2, DJVU] Garik014 446 MB
Фильмы 2010 года Искатели могил / Grave Encounters (Братья Вишес / The Vicious Brothers) [2010, Канада, Ужасы, триллер, BDRip] MVO (R5) + Original (Eng) + Subs (Rus, Ukr, Eng) reversefile 1.71 GB
Фильмы (DVD 5/9) Искатели приключений (Максим Воронков) [2012, Россия, комедия, приключения, DVD5 (Сжатый)] исх. R5 + Original Rus TorrentFilm 3.88 GB
Фильмы (DVD 5/9) Искатели приключений (Максим Воронков) [2012, Россия, комедия, приключения, DVD9] R5 Original Rus TorrentFilm 4.54 GB
Фильмы (HD Rips | 720p, 1080p) Искатели приключений (Максим Воронков) [2012, Россия, Комедия, приключения, HDTV 1080i] reversefile 6.3 GB
Зарубежные сериалы Искатели сокровищ / Detectorists [S02x01-06 из 06] (2015) HDTVRip 720р от KinoRay & Lord32x Studio | L1 достали все 3.58 GB
Зарубежные сериалы Искатели сокровищ / Detectorists [S02x01-06 из 06] (2015) HDTVRip от KinoRay & Lord32x Studio | L1 достали все 1.18 GB
Фильмы (HD DVD, Blu-ray и BDRemux) Искатель воды / The Water Diviner (2014) BDRemux 1080p от HDClub | D, A | iTunes Russian Mafia 30.69 GB
Показать сообщения:    

Текущее время: Сегодня 04:28

Часовой пояс: GMT



Вы не можете начинать темы
Вы не можете отвечать на сообщения
Вы не можете редактировать свои сообщения
Вы не можете удалять свои сообщения
Вы не можете голосовать в опросах
Вы не можете прикреплять файлы к сообщениям
Вы не можете скачивать файлы