Иррациональный человек / Irrational Man (2015) BDRemux | iTunes

 
Автор Сообщение

достали все ®

Пол:

Стаж: 1 год 8 месяцев

Сообщений: 6600



Награды: 12 (Подробнее)

Mega Releaser 3 (Количество: 1) Mega Releaser 1 (Количество: 1) Top Releaser 3 (Количество: 1)
Торрент-статистика

Создавать темы 17-Янв-2016 14:02

[Цитировать]

Производство: США / Gravier Productions
Жанр: драма, детектив
Режиссер: Вуди Аллен
Продюсер: Летти Аронсон, Стивен Тененбаум, Эдвард Уолсон
Актеры: Хоакин Феникс, Эмма Стоун, Джейми Блэкли, Паркер Поузи, Джо Степлтон, Нэнси Кэрролл, Эллисон Галлерани, Бригитт Ланди-Пейн, Кэтлин Семер, Бетси Айдем
Описание:
Профессор философии Эйб Лукас опустошен: он не видит в своей жизни ни радости, ни смысла.
На лето Эйб приезжает преподавать в небольшой колледж, где у него завязываются отношения с двумя очень разными женщинами. Рита, его новая коллега, воображает, что именно он вызволит ее из несчастливого брака. А Джилл, его лучшая студентка, становится ему ближайшим другом. Но девушку неодолимо притягивают мятущаяся творческая натура Эйба и его загадочное прошлое, и она все больше отдаляется от своего бойфренда, Роя…
Все меняет невольно подслушанный Эйбом и Джилл разговор, после которого Эйб, стряхнув с себя равнодушие и отчаяние, решает действовать… Абсолютно иррационально.

Рейтинг MPAA: R - лицам до 17 лет обязательно присутствие взрослого
Дата мировой премьеры: 15 мая 2015
Дата российской премьеры: 13 августа 2015, «Централ Партнершип»
Продолжительность: 01:34:50
Качество: BDRemux
Перевод: Профессиональный (полное дублирование) (iTunes)
Вид субтитров: Вшитые, отключаемые
Язык субтитров: Английский
Видео: MPEG-4 AVC/H.264, 1920x1080p, (2,40:1), ~22919 Kbps, 23.976 fps
Аудио: AC3, 6 ch, 384 kbps - Русский
Аудио: AC3, 6 ch, 640 kbps - Английский
Аудио: DTS-HD MА, 6 ch, 2108 kbps - Английский

MediaInfo:

Format : Matroska
Format version : Version 4 / Version 2
File size : 17.3 GiB
Duration : 1h 34mn
Overall bit rate mode : Variable
Overall bit rate : 26.1 Mbps
Movie name : Irrational.Man.2015.BDREMUX.1080p
Encoded date : UTC 2016-01-14 05:40:41
Writing application : mkvmerge v8.3.0 ('Over the Horizon') 64bit
Writing library : libebml v1.3.1 + libmatroska v1.4.2
Video
ID : 1
Format : AVC
Format/Info : Advanced Video Codec
Format profile : High@L4.1
Format settings, CABAC : Yes
Format settings, ReFrames : 2 frames
Codec ID : V_MPEG4/ISO/AVC
Duration : 1h 34mn
Bit rate mode : Variable
Bit rate : 22.9 Mbps
Width : 1 920 pixels
Height : 1 080 pixels
Display aspect ratio : 16:9
Frame rate mode : Constant
Frame rate : 23.976 (24000/1001) fps
Color space : YUV
Chroma subsampling : 4:2:0
Bit depth : 8 bits
Scan type : Progressive
Bits/(Pixel*Frame) : 0.461
Stream size : 15.2 GiB (88%)
Title : Irrational.Man.2015.BDREMUX.1080p
Language : English
Default : Yes
Forced : No
Audio #1
ID : 2
Format : AC-3
Format/Info : Audio Coding 3
Mode extension : CM (complete main)
Format settings, Endianness : Big
Codec ID : A_AC3
Duration : 1h 34mn
Bit rate mode : Constant
Bit rate : 384 Kbps
Channel(s) : 6 channels
Channel positions : Front: L C R, Side: L R, LFE
Sampling rate : 48.0 KHz
Frame rate : 31.250 fps (1536 spf)
Compression mode : Lossy
Stream size : 260 MiB (1%)
Title : DUB [iTunes]
Language : Russian
Default : Yes
Forced : No
Audio #2
ID : 3
Format : DTS
Format/Info : Digital Theater Systems
Format profile : MA / Core
Mode : 16
Format settings, Endianness : Big
Codec ID : A_DTS
Duration : 1h 34mn
Bit rate mode : Variable / Constant
Bit rate : 2 108 Kbps / 1 509 Kbps
Channel(s) : 6 channels
Channel positions : Front: L C R, Side: L R, LFE
Sampling rate : 48.0 KHz
Frame rate : 93.750 fps (512 spf)
Bit depth : 16 bits
Compression mode : Lossless / Lossy
Stream size : 1.40 GiB (8%)
Language : English
Default : No
Forced : No
Audio #3
ID : 4
Format : AC-3
Format/Info : Audio Coding 3
Mode extension : CM (complete main)
Format settings, Endianness : Big
Codec ID : A_AC3
Duration : 1h 34mn
Bit rate mode : Constant
Bit rate : 640 Kbps
Channel(s) : 6 channels
Channel positions : Front: L C R, Side: L R, LFE
Sampling rate : 48.0 KHz
Frame rate : 31.250 fps (1536 spf)
Compression mode : Lossy
Stream size : 434 MiB (2%)
Language : English
Default : No
Forced : No
Text #1
ID : 5
Format : PGS
Muxing mode : zlib
Codec ID : S_HDMV/PGS
Codec ID/Info : Picture based subtitle format used on BDs/HD-DVDs
Duration : 1h 30mn
Bit rate : 18.4 Kbps
Count of elements : 3316
Stream size : 12.0 MiB (0%)
Language : English
Default : No
Forced : No
Text #2
ID : 6
Format : PGS
Muxing mode : zlib
Codec ID : S_HDMV/PGS
Codec ID/Info : Picture based subtitle format used on BDs/HD-DVDs
Duration : 1h 29mn
Bit rate : 17.5 Kbps
Count of elements : 3166
Stream size : 11.2 MiB (0%)
Language : English
Default : No
Forced : No
Text #3
ID : 7
Format : UTF-8
Codec ID : S_TEXT/UTF8
Codec ID/Info : UTF-8 Plain Text
Duration : 1h 29mn
Bit rate : 99 bps
Count of elements : 1606
Stream size : 65.5 KiB (0%)
Title : Full
Language : English
Default : No
Forced : No
Text #4
ID : 8
Format : UTF-8
Codec ID : S_TEXT/UTF8
Codec ID/Info : UTF-8 Plain Text
Duration : 1h 30mn
Bit rate : 102 bps
Count of elements : 1658
Stream size : 68.0 KiB (0%)
Title : SDH
Language : English
Default : No
Forced : No
Menu
00:00:00.000 : en:Chapter 01
00:04:40.113 : en:Chapter 02
00:09:23.688 : en:Chapter 03
00:13:29.850 : en:Chapter 04
00:17:54.323 : en:Chapter 05
00:23:17.646 : en:Chapter 06
00:30:58.147 : en:Chapter 07
00:38:20.881 : en:Chapter 08
00:45:41.071 : en:Chapter 09
00:54:50.287 : en:Chapter 10
01:00:09.981 : en:Chapter 11
01:04:34.912 : en:Chapter 12
01:09:43.804 : en:Chapter 13
01:13:58.475 : en:Chapter 14
01:20:16.019 : en:Chapter 15
01:26:02.115 : en:Chapter 16
Скриншоты:

Время раздачи: 24/7
[Профиль] [ЛС]
Показать сообщения:    

Текущее время: Сегодня 01:17

Часовой пояс: GMT



Вы не можете начинать темы
Вы не можете отвечать на сообщения
Вы не можете редактировать свои сообщения
Вы не можете удалять свои сообщения
Вы не можете голосовать в опросах
Вы не можете прикреплять файлы к сообщениям
Вы не можете скачивать файлы