Ирония судьбы. Продолжение (2007) Blu-Ray Remux 1080p от ivandubskoj | Лицензия

 
Автор Сообщение

sergej644 ®

Пол:

Стаж: 4 года 11 месяцев

Сообщений: 6040

Откуда: Soviet Union



Награды: Нет

Торрент-статистика

Создавать темы 27-Янв-2015 03:52

[Цитировать]

Информация о фильме
Название: Ирония судьбы: Продолжение
Оригинальное название: Ирония судьбы: Продолжение
Год выхода: 2007
Жанр: Мелодрама, лирическая комедия, сиквел
Режиссёр: Тимур Бекмамбетов
В ролях: Сергей Безруков, Елизавета Боярская, Константин Хабенский, Андрей Мягков, Юрий Яковлев, Барбара Брыльска, Валентина Талызина, Александр Ширвиндт, Александр Белявский, Вилле Хаапасало, Михаил Ефремов, Евгения Добровольская, Константин Мурзенко, Роман Мадянов, Виктор Вержбицкий, Нина Русланова, Инга Оболдина, Анна Семенович, Эльдар Рязанов
О фильме: С того Нового года, когда Женя Лукашин встретил свою Надю, прошло тридцать лет. Время не пощадило их отношений - они расстались, она вернулась в Ленинград. Старые друзья продолжают каждый год ходить в баню, но теперь к ним присоединился Костя - сын Жени Лукашина от нового брака, тоже, впрочем, неудачного. И вот Павел и Александр, ставшие уже дядей Пашей и дядей Сашей, подговаривают Костю совершить для отца новогоднее чудо и отправиться… в Петербург! Но в их хитрый план вмешивается случайность: там, в типовой квартирке по знакомому адресу: 3-я улица Строителей, дом 25, квартира 12, проживает красавица Наденька, дочь той самой Надежды. И именно сегодня её жених Ираклий приезжает, чтобы сделать Наде предложение...

Выпущено: Мосфильм, Базелевс Продакшн, Первый канал, ЗАО За тридцать, Россия
Продолжительность: 01:53:56
Перевод: Не требуется
Файл
Качество: Blu-ray Remux (1080p)
Видео: MPEG-4 AVC, 25.0 Mбит/с, 1920x1080 (16:9), 23,976 кадр/с
Аудио: Русский (AC3, 6 ch, 448 Кбит/с), (DTS, 6 ch, 1510 Кбит/с), (DTS-HD MA, 8 ch, 2125 Кбит/с)
Субтитры: Русские, английские (полные, SRT)
Навигация по главам: Есть (Сохранены оригинальные чаптеры как на Blu-ray)

Знаете ли вы, что...

• На стадии производства у фильма было 48 вариантов сценария.
• После тест-просмотров было решено переснять часть сцен общей длительностью 15 минут.
• Герой Александра Белявского (дядя Саша) появляется в двух сценах (в бане и аэропорту) и почти всегда молчит в отличие от героя Александра Ширвиндта. Это связано с тем, что Белявский не так давно перенес инсульт и речь до конца пока не восстановилась.
• На самом деле Лиза Боярская отказалась от сцены поцелуя с Константином Хабенским. Операторы всего лишь ставили камеры так, чтобы этого не было заметно!
• На роль Нади-младшей сценарист предлагал Милу Йовович. Ей отправили сценарий, но она отказалась.
• В фильме присутствует продакт-плейсмент компаний «Nokia», «Тойота», «Calve», «Билайн», «Аэрофлот», «Faberlic», «Nestle», а также водки «Русский Стандарт».
• Почти во всех кадрах фильма настойчиво используется сочетание красного и синего цветов (бокалы на столе, шарики на ёлке, в квартиру ведёт красная дверь на синей стене и проч.). Точно такой же цвет имеют и воздушные шарики, на которых написаны имена главных героев.
• Квартиру номер 13 сами авторы фильма называют «Сказкой» (см. доп. материалы к фильму). На стене в «сказке» висят «волшебные вещи».
• Дата на хлопушке, фото которой помещено в дополнительных материалах к фильму, - 24.12.2006. Возможно, это является намёком на то, что действие фильма на самом деле происходит в Ночь перед Рождеством.

MediaInfo

General
Unique ID : 175159344897120668901804229583001221395 (0x83C67675F9B35132BDB807E0E119F913)
Complete name : Ironiya.sud'by.Prodolzhenie.2007.BDRemux.1080p.mkv
Format : Matroska
File size : 23.1 GiB
Duration : 1h 53mn
Overall bit rate : 29.1 Mbps
Movie name : Ирония судьбы. Продолжение (2007) Blu-ray Remux (1080p)
Encoded date : UTC 2014-11-05 07:23:25
Writing application : mkvmerge v6.1.0 ('Old Devil') built on Mar 4 2013 09:10:42
Writing library : libebml v1.3.0 + libmatroska v1.4.0
Video
ID : 1
Format : AVC
Format/Info : Advanced Video Codec
Format profile : High@L4.1
Format settings, CABAC : Yes
Format settings, ReFrames : 4 frames
Codec ID : V_MPEG4/ISO/AVC
Duration : 1h 53mn
Bit rate mode : Variable
Bit rate : 25.0 Mbps
Maximum bit rate : 33.0 Mbps
Width : 1 920 pixels
Height : 1 080 pixels
Display aspect ratio : 16:9
Frame rate : 23.976 fps
Standard : NTSC
Color space : YUV
Chroma subsampling : 4:2:0
Bit depth : 8 bits
Scan type : Progressive
Bits/(Pixel*Frame) : 0.502
Stream size : 19.9 GiB (86%)
Title : Ирония судьбы. Продолжение (2007)
Language : Russian
Color primaries : BT.709-5, BT.1361, IEC 61966-2-4, SMPTE RP177
Transfer characteristics : BT.709-5, BT.1361
Matrix coefficients : BT.709-5, BT.1361, IEC 61966-2-4 709, SMPTE RP177
Audio #1
ID : 2
Format : AC-3
Format/Info : Audio Coding 3
Mode extension : CM (complete main)
Codec ID : A_AC3
Duration : 1h 53mn
Bit rate mode : Constant
Bit rate : 448 Kbps
Channel(s) : 6 channels
Channel positions : Front: L C R, Side: L R, LFE
Sampling rate : 48.0 KHz
Bit depth : 16 bits
Compression mode : Lossy
Stream size : 365 MiB (2%)
Title : DD 5.1 [Original]
Language : Russian
Audio #2
ID : 3
Format : DTS
Format/Info : Digital Theater Systems
Codec ID : A_DTS
Duration : 1h 53mn
Bit rate mode : Constant
Bit rate : 1 510 Kbps
Channel(s) : 6 channels
Channel positions : Front: L C R, Side: L R, LFE
Sampling rate : 48.0 KHz
Bit depth : 16 bits
Compression mode : Lossy
Stream size : 1.20 GiB (5%)
Title : DTS 5.1 [Original]
Language : Russian
Audio #3
ID : 4
Format : DTS
Format/Info : Digital Theater Systems
Format profile : MA / Core
Codec ID : A_DTS
Duration : 1h 53mn
Bit rate mode : Variable
Bit rate : 1 573 Kbps / 1 510 Kbps
Channel(s) : 8 channels / 6 channels
Channel positions : Front: L C R, Side: L R, Back: L R, LFE / Front: L C R, Side: L R, LFE
Sampling rate : 48.0 KHz
Bit depth : 16 bits
Compression mode : Lossless / Lossy
Title : DTS-HD MA 7.1 [Original]
Language : Russian
Text #1
ID : 5
Format : UTF-8
Codec ID : S_TEXT/UTF8
Codec ID/Info : UTF-8 Plain Text
Title : Full
Language : Russian
Text #2
ID : 6
Format : UTF-8
Codec ID : S_TEXT/UTF8
Codec ID/Info : UTF-8 Plain Text
Title : Full
Language : English
Menu
00:00:00.000 : :Chapter 01
00:05:01.050 : :Chapter 02
00:11:54.130 : :Chapter 03
00:19:10.107 : :Chapter 04
00:27:15.592 : :Chapter 05
00:33:31.092 : :Chapter 06
00:40:29.260 : :Chapter 07
00:48:02.421 : :Chapter 08
00:53:07.225 : :Chapter 09
01:00:14.402 : :Chapter 10
01:06:32.321 : :Chapter 11
01:11:17.064 : :Chapter 12
01:17:11.084 : :Chapter 13
01:23:31.256 : :Chapter 14
01:30:41.811 : :Chapter 15
01:38:45.628 : :Chapter 16
01:43:28.619 : :Chapter 17
01:49:03.453 : :Chapter 18

Скриншоты

Автор ремукса - ivandubskoj
[Профиль] [ЛС]
Кто просматривает тему:

Форум Тема Автор Размер
Кино СССР Бриллиантовая рука (Леонид Гайдай) [1968, иронический детектив, DVDRip] Zithylord 4.29 GB
Отечественные cериалы Двое с пистолетами [01-16 из 16] (Алексей Гусев)[2014, Иронический детектив, SATRip] sergej644 9.65 GB
Боевики, детективы, триллеры Иоанна Хмелевская - Сборник произведений (77 книг) [1982-2015, Иронический детектив, fb2, djvu] Garik014 81 MB
Кино СССР Ирония судьбы, или С легким паром! (1975) HDTVRip 720p sergej644 4.86 GB
Фильмы (DVD 5/9) Ирония судьбы, или С легким паром! (Эльдар Рязанов) [1975, мелодрама, DVD9] Twister TorrentFilm 7.85 GB
Фильмы (DVD 5/9) Ирония судьбы, или С легким паром! (Эльдар Рязанов) [1975, СССР, лирическая комедия, музыкальный, 2хDVD9] Sub (Rus, Eng, Ger, Fr, Spa) TorrentFilm 12.8 GB
Кино СССР Ирония судьбы, или С легким паром! (Эльдар Рязанов)[1975, Комедия, мелодрама, DVDRip] sergej644 2.78 GB
Фильмы (HD DVD, Blu-ray и BDRemux) Ирония судьбы. Продолжение (2007) Blu-Ray 1080p | Лицензия sergej644 35.95 GB
Показать сообщения:    

Текущее время: Сегодня 00:47

Часовой пояс: GMT



Вы не можете начинать темы
Вы не можете отвечать на сообщения
Вы не можете редактировать свои сообщения
Вы не можете удалять свои сообщения
Вы не можете голосовать в опросах
Вы не можете прикреплять файлы к сообщениям
Вы не можете скачивать файлы