Ип Ман 3D / Yip Man 3 (2015) BDRip 1080p | L

 
Автор Сообщение

достали все ®

Пол:

Стаж: 1 год 11 месяцев

Сообщений: 6800



Награды: 12 (Подробнее)

Mega Seeder 2 (Количество: 1) Mega Releaser 3 (Количество: 1) Mega Seeder 5 (Количество: 1)
Торрент-статистика

Создавать темы 14-Мар-2016 07:54

[Цитировать]

Название: Ип Ман 3D
Оригинальное название: Yip Man 3
Год выпуска: 2015
Жанр: Боевик, драма, биография, история
Выпущено: Гонконг, Pegasus Motion Pictures, Super Hero Films
Режиссер: Уилсон Ип
В ролях: Донни Йен, Патрик Там, Цзинь Чжан, Линн Ханг, Майк Тайсон, Кент Чэн, Квок-Куен Чан, Менг Ло, Ка-Ян Леунг, Тони Люн Сиу Хунг, Карина ЭнДжи, Чзан Хань
О фильме: Полубиографический фильм о жизни Ип Мана — первого человека, начавшего открыто преподавать кунг-фу (стиль Вин-Чунь).

Качество: BDRip 1080p
Видео: MPEG-4 AVC, 8944 Кбит/с, 1920x816
Аудио: Русский (AC3, 2 ch, 128 Кбит/с)
Продолжительность: 01:44:41
Перевод: Любительский многоголосый (RecentFilms)
Субтитры: Английские

Скриншоты

MediaInfo

File: D:Видео 2Ip.Man.3.2015.BDRip.1080p.mkv
General
Unique ID : 196870405195274812091089793363932364633 (0x941BDC60DB6E2E56A8F9B89FA66C3F59)
Complete name : D:Видео 2Ip.Man.3.2015.BDRip.1080p.mkv
Format : Matroska
Format version : Version 4 / Version 2
File size : 6.63 GiB
Duration : 1h 44mn
Overall bit rate : 9 069 Kbps
Movie name : Ip.Man.3.2015.BDRip.1080p
Encoded date : UTC 2016-03-14 03:29:10
Writing application : mkvmerge v8.3.0 ('Over the Horizon') 64bit
Writing library : libebml v1.3.1 + libmatroska v1.4.2
Video
ID : 1
Format : AVC
Format/Info : Advanced Video Codec
Format profile : High@L4.1
Format settings, CABAC : Yes
Format settings, ReFrames : 5 frames
Codec ID : V_MPEG4/ISO/AVC
Duration : 1h 44mn
Bit rate : 8 944 Kbps
Width : 1 920 pixels
Height : 816 pixels
Display aspect ratio : 2.35:1
Frame rate mode : Constant
Frame rate : 24.000 fps
Color space : YUV
Chroma subsampling : 4:2:0
Bit depth : 8 bits
Scan type : Progressive
Bits/(Pixel*Frame) : 0.238
Stream size : 6.41 GiB (97%)
Writing library : x264 core 148 r2665 a01e339
Encoding settings : cabac=1 / ref=5 / deblock=1:-1:-1 / analyse=0x3:0x113 / me=umh / subme=7 / psy=1 / psy_rd=1.00:0.00 / mixed_ref=1 / me_range=16 / chroma_me=1 / trellis=1 / 8x8dct=1 / cqm=0 / deadzone=21,11 / fast_pskip=1 / chroma_qp_offset=-2 / threads=12 / lookahead_threads=2 / sliced_threads=0 / nr=0 / decimate=1 / interlaced=0 / bluray_compat=0 / constrained_intra=0 / bframes=3 / b_pyramid=2 / b_adapt=2 / b_bias=0 / direct=3 / weightb=1 / open_gop=0 / weightp=2 / keyint=250 / keyint_min=24 / scenecut=40 / intra_refresh=0 / rc_lookahead=40 / rc=2pass / mbtree=1 / bitrate=8944 / ratetol=1.0 / qcomp=0.60 / qpmin=0 / qpmax=69 / qpstep=4 / cplxblur=20.0 / qblur=0.5 / vbv_maxrate=50000 / vbv_bufsize=50000 / nal_hrd=none / filler=0 / ip_ratio=1.40 / aq=1:1.00
Language : Chinese
Default : Yes
Forced : No
Audio
ID : 2
Format : AC-3
Format/Info : Audio Coding 3
Mode extension : CM (complete main)
Format settings, Endianness : Big
Codec ID : A_AC3
Duration : 1h 44mn
Bit rate mode : Constant
Bit rate : 128 Kbps
Channel(s) : 2 channels
Channel positions : Front: L R
Sampling rate : 48.0 KHz
Bit depth : 16 bits
Compression mode : Lossy
Stream size : 95.8 MiB (1%)
Language : Russian
Default : Yes
Forced : No
Text
ID : 3
Format : UTF-8
Codec ID : S_TEXT/UTF8
Codec ID/Info : UTF-8 Plain Text
Language : English
Default : No
Forced : No
Релиз без рекламы.
[Профиль] [ЛС]
Кто просматривает тему:

Показать сообщения:    

Текущее время: Сегодня 14:03

Часовой пояс: GMT



Вы не можете начинать темы
Вы не можете отвечать на сообщения
Вы не можете редактировать свои сообщения
Вы не можете удалять свои сообщения
Вы не можете голосовать в опросах
Вы не можете прикреплять файлы к сообщениям
Вы не можете скачивать файлы