Ип Ман 3D / Yip Man 3 (2015) BDRip 720p | L

 
Автор Сообщение

достали все ®

Пол:

Стаж: 1 год 8 месяцев

Сообщений: 6545



Награды: 12 (Подробнее)

Top Releaser 3 (Количество: 1) Mega Seeder 2 (Количество: 1) Mega Releaser 3 (Количество: 1)
Торрент-статистика

Создавать темы 14-Мар-2016 07:53

[Цитировать]

Название: Ип Ман 3D
Оригинальное название: Yip Man 3
Год выпуска: 2015
Жанр: Боевик, драма, биография, история
Выпущено: Гонконг, Pegasus Motion Pictures, Super Hero Films
Режиссер: Уилсон Ип
В ролях: Донни Йен, Патрик Там, Цзинь Чжан, Линн Ханг, Майк Тайсон, Кент Чэн, Квок-Куен Чан, Менг Ло, Ка-Ян Леунг, Тони Люн Сиу Хунг, Карина ЭнДжи, Чзан Хань
О фильме: Полубиографический фильм о жизни Ип Мана — первого человека, начавшего открыто преподавать кунг-фу (стиль Вин-Чунь).

Качество: BDRip 720p
Видео: MPEG-4 AVC, 4698 Кбит/с, 1280x544
Аудио: Русский (AC3, 2 ch, 128 Кбит/с), китайский (AC3, 6 ch, 640 Кбит/с)
Продолжительность: 01:44:41
Перевод: Любительский многоголосый (RecentFilms)
Субтитры: Китайские

Скриншоты

MediaInfo

Формат : Matroska
Версия формата : Version 4 / Version 2
Размер файла : 4,46 Гбайт
Продолжительность : 1 ч. 44 м.
Общий поток : 6104 Кбит/сек
Название фильма : Ip.Man.3.2015.BDRip.720p
Дата кодирования : UTC 2016-03-14 03:02:15
Программа кодирования : mkvmerge v8.3.0 ('Over the Horizon') 64bit
Библиотека кодирования : libebml v1.3.1 + libmatroska v1.4.2
Видео
Идентификатор : 1
Формат : AVC
Формат/Информация : Advanced Video Codec
Профиль формата : High@L4.1
Параметр CABAC формата : Да
Параметр ReFrames формата : 12 кадров
Идентификатор кодека : V_MPEG4/ISO/AVC
Продолжительность : 1 ч. 44 м.
Битрейт : 4698 Кбит/сек
Ширина : 1280 пикселей
Высота : 544 пикселя
Соотношение сторон : 2,35:1
Режим частоты кадров : Постоянный
Частота кадров : 24,000 кадра/сек
Цветовое пространство : YUV
Субдискретизация насыщенности : 4:2:0
Битовая глубина : 8 бит
Тип развёртки : Прогрессивная
Бит/(Пиксели*Кадры) : 0.281
Размер потока : 3,43 Гбайт (77%)
Библиотека кодирования : x264 core 129 r2245+704+36 8e61944 tMod+MixAQ [8-bit@4:2:0 X86_64]
Настройки программы : cabac=1 / ref=12 / deblock=1:-3:-3 / analyse=0x3:0x133 / me=umh / subme=11 / psy=1 / fade_compensate=0.00 / psy_rd=1.05:0.10 / mixed_ref=1 / me_range=32 / chroma_me=1 / trellis=2 / 8x8dct=1 / cqm=0 / deadzone=21,11 / fast_pskip=0 / chroma_qp_offset=-3 / threads=18 / lookahead_threads=3 / sliced_threads=0 / nr=0 / decimate=0 / interlaced=0 / bluray_compat=0 / constrained_intra=0 / fgo=0 / bframes=10 / b_pyramid=2 / b_adapt=2 / b_bias=0 / direct=3 / weightb=1 / open_gop=0 / weightp=2 / keyint=250 / keyint_min=24 / scenecut=40 / intra_refresh=0 / rc_lookahead=80 / rc=2pass / mbtree=1 / bitrate=4698 / ratetol=1.0 / qcomp=0.70 / qpmin=0 / qpmax=69 / qpstep=4 / cplxblur=20.0 / qblur=0.5 / ip_ratio=1.40 / aq=1 / aq-strength=0.85 / aq-sensitivity=10.00 / aq-ifactor=1.00 / aq-pfactor=1.00 / aq-bfactor=1.00 / aq2=0
Язык : Chinese
Default : Да
Forced : Нет
Цветовой диапазон : Limited
Коэффициенты матрицы : BT.709
Аудио #1
Идентификатор : 2
Формат : AC-3
Формат/Информация : Audio Coding 3
Расширение режима : CM (complete main)
Параметр Endianness формата : Big
Идентификатор кодека : A_AC3
Продолжительность : 1 ч. 44 м.
Вид битрейта : Постоянный
Битрейт : 128 Кбит/сек
Каналы : 2 канала
Расположение каналов : Front: L R
Частота : 48,0 КГц
Частота кадров : 31,250 кадров/сек (1536 spf)
Метод сжатия : С потерями
Размер потока : 95,8 Мбайт (2%)
Язык : Russian
Default : Да
Forced : Нет
Аудио #2
Идентификатор : 3
Формат : AC-3
Формат/Информация : Audio Coding 3
Расширение режима : CM (complete main)
Параметр Endianness формата : Big
Идентификатор кодека : A_AC3
Продолжительность : 1 ч. 44 м.
Вид битрейта : Постоянный
Битрейт : 640 Кбит/сек
Каналы : 6 каналов
Расположение каналов : Front: L C R, Side: L R, LFE
Частота : 48,0 КГц
Частота кадров : 31,250 кадров/сек (1536 spf)
Метод сжатия : С потерями
Размер потока : 479 Мбайт (10%)
Заголовок : Cantonese
Язык : Chinese
Default : Нет
Forced : Нет
Аудио #3
Идентификатор : 4
Формат : AC-3
Формат/Информация : Audio Coding 3
Расширение режима : CM (complete main)
Параметр Endianness формата : Big
Идентификатор кодека : A_AC3
Продолжительность : 1 ч. 44 м.
Вид битрейта : Постоянный
Битрейт : 640 Кбит/сек
Каналы : 6 каналов
Расположение каналов : Front: L C R, Side: L R, LFE
Частота : 48,0 КГц
Частота кадров : 31,250 кадров/сек (1536 spf)
Метод сжатия : С потерями
Размер потока : 479 Мбайт (10%)
Заголовок : Mandarin
Язык : Chinese
Default : Нет
Forced : Нет
Текст #1
Идентификатор : 5
Формат : UTF-8
Идентификатор кодека : S_TEXT/UTF8
Идентификатор кодека/Информация : UTF-8 Plain Text
Продолжительность : 1 ч. 37 м.
Битрейт : 33 бит/сек
Count of elements : 1166
Размер потока : 23,9 Кбайт (0%)
Заголовок : Simplified
Язык : Chinese
Default : Нет
Forced : Нет
Текст #2
Идентификатор : 6
Формат : UTF-8
Идентификатор кодека : S_TEXT/UTF8
Идентификатор кодека/Информация : UTF-8 Plain Text
Продолжительность : 1 ч. 37 м.
Битрейт : 33 бит/сек
Count of elements : 1166
Размер потока : 23,9 Кбайт (0%)
Заголовок : Traditional
Язык : Chinese
Default : Нет
Forced : Нет
Меню
00:00:00.000 : en:00:00:00.000
00:10:18.041 : en:00:10:18.041
00:18:56.666 : en:00:18:56.666
00:27:59.666 : en:00:27:59.666
00:37:31.250 : en:00:37:31.250
00:46:07.833 : en:00:46:07.833
01:00:37.000 : en:01:00:37.000
01:06:38.500 : en:01:06:38.500
01:15:13.041 : en:01:15:13.041
01:23:18.291 : en:01:23:18.291
01:31:00.791 : en:01:31:00.791
01:41:48.416 : en:01:41:48.416
Релиз без рекламы.
[Профиль] [ЛС]
Кто просматривает тему:

Показать сообщения:    

Текущее время: Сегодня 14:37

Часовой пояс: GMT



Вы не можете начинать темы
Вы не можете отвечать на сообщения
Вы не можете редактировать свои сообщения
Вы не можете удалять свои сообщения
Вы не можете голосовать в опросах
Вы не можете прикреплять файлы к сообщениям
Вы не можете скачивать файлы