Ип Ман 2 / Yip Man 2 / Ip Man 2 (2010) BDRip 720p | GER Transfer

 
Автор Сообщение

Russian Mafia ®

Пол:

Стаж: 1 год 8 месяцев

Сообщений: 4256



Награды: 10 (Подробнее)

Top Releaser 4 (Количество: 1) Top Releaser 5 (Количество: 1) Mega Seeder 5 (Количество: 1)
Торрент-статистика

Создавать темы 26-Сен-2015 18:31

[Цитировать]


Страна: Гонконг, Китай
Жанр: боевик, биография, история
Год выпуска: 2010
Продолжительность: 01:48:08
Перевод: Профессиональный (двухголосый, закадровый)[BBC Saint-Petersburg] + Любительский (двухголосый) [Кубик в кубе]-Режиссер: Уилсон Ип / Wilson Yip
В ролях: Донни Ен (Ip Man), Линн Хун (Zhang Yong Cheng), Саймон Ям (Zhou Qing Quan), Саммо Хунг Кам-Бо (Master Hong Zhen Nan), Хуан Сяомин (Wong Shun Leung), Фан Сю-Вонг (Jin Shan Zhao), Кент Чэн (Fatso), Даррен Шахлави (Twister), Брюс Блэйн (Master Hung, озвучка), Эмбер Чиа, Цзань Дай-Ян (Bruce Lee), Эрих Флешман (Wong Shun Leung, озвучка)-Описание: Вторая Мировая война закончилась, но Китай все еще слаб и беден. Ип Ман открывает свою школу боевых искусств, однако завоевать свое место под солнцем оказывается непросто - чтобы избежать проблем, Ип Ману нужно сначала завоевать уважение представителей других кунгфу-школ, а председательствующему в их ассоциации Хунгу Ип Ман не понравился с первого взгляда. А тем временем в Гонконге усиливается присутствие британцев, и некоторые из них плевать хотели на китайские традиции и обычаи.-
MPAA: R - Лицам до 17 лет обязательно присутствие взрослого-Семпл-Качество: BDRip
Контейнер: MKV
Видео: AVC, 1280x544 (2.35:1), 4959 kbps, 23.976 fps, 0.297 bpp
Аудио №1: русский / AC3 / 5.1 / 48 kHz / 448 kbps
Аудио №2: русский / AC3 / 5.1 / 48 kHz / 384 kbps
Навигация по главам: есть-

Media Info

------------------------------------------------------------------
x264 [info]: frame I:2899 Avg QP:18.26 size: 91405
x264 [info]: frame P:89711 Avg QP:21.47 size: 33435
x264 [info]: frame B:62955 Avg QP:22.87 size: 12006
------------------------------------------------------------------
Format : Matroska
Format version : Version 2
File size : 4.37 GiB
Duration : 1h 48mn
Overall bit rate : 5 789 Kbps
Movie name : = Ип Ман 2 / Ip Man 2 BDRip by SC Kosmos =
Encoded date : UTC 2013-11-28 18:58:56
Writing application : mkvmerge v5.3.0 ('I could have danced') built on Feb 9 2012 10:38:07
Writing library : libebml v1.2.3 + libmatroska v1.3.0
Video
ID : 1
Format : AVC
Format/Info : Advanced Video Codec
Format profile : High@L4.1
Format settings, CABAC : Yes
Format settings, ReFrames : 6 frames
Codec ID : V_MPEG4/ISO/AVC
Duration : 1h 48mn
Bit rate : 4 959 Kbps
Width : 1 280 pixels
Height : 544 pixels
Display aspect ratio : 2.35:1
Frame rate : 23.976 fps
Color space : YUV
Chroma subsampling : 4:2:0
Bit depth : 8 bits
Scan type : Progressive
Bits/(Pixel*Frame) : 0.297
Stream size : 3.66 GiB (84%)
Title : Ип Ман 2 / Ip Man 2 BDRip by SC Kosmos
Writing library : x264 core 140 r2377 1ca7bb9
Encoding settings : cabac=1 / ref=6 / deblock=1:-2:-2 / analyse=0x3:0x113 / me=umh / subme=11 / psy=1 / psy_rd=1.00:0.00 / mixed_ref=1 / me_range=48 / chroma_me=1 / trellis=2 / 8x8dct=1 / cqm=0 / deadzone=21,11 / fast_pskip=0 / chroma_qp_offset=-2 / threads=12 / lookahead_threads=1 / sliced_threads=0 / nr=0 / decimate=1 / interlaced=0 / bluray_compat=0 / constrained_intra=0 / bframes=6 / b_pyramid=2 / b_adapt=1 / b_bias=0 / direct=1 / weightb=1 / open_gop=0 / weightp=2 / keyint=240 / keyint_min=23 / scenecut=40 / intra_refresh=0 / rc_lookahead=40 / rc=2pass / mbtree=0 / bitrate=4959 / ratetol=1.0 / qcomp=0.60 / qpmin=0 / qpmax=69 / qpstep=4 / cplxblur=20.0 / qblur=0.5 / vbv_maxrate=50000 / vbv_bufsize=50000 / nal_hrd=none / filler=0 / ip_ratio=1.40 / pb_ratio=1.30 / aq=1:1.00 / zones=151750,155565,b=0.27
Language : Chinese
Default : Yes
Forced : No
Audio #1
ID : 2
Format : AC-3
Format/Info : Audio Coding 3
Mode extension : CM (complete main)
Codec ID : A_AC3
Duration : 1h 48mn
Bit rate mode : Constant
Bit rate : 448 Kbps
Channel(s) : 6 channels
Channel positions : Front: L C R, Side: L R, LFE
Sampling rate : 48.0 KHz
Bit depth : 16 bits
Compression mode : Lossy
Stream size : 347 MiB (8%)
Title : DVO [ BBC Saint-Petersburg ]
Language : Russian
Default : Yes
Forced : No
Audio #2
ID : 3
Format : AC-3
Format/Info : Audio Coding 3
Mode extension : CM (complete main)
Codec ID : A_AC3
Duration : 1h 48mn
Bit rate mode : Constant
Bit rate : 384 Kbps
Channel(s) : 6 channels
Channel positions : Front: L C R, Side: L R, LFE
Sampling rate : 48.0 KHz
Bit depth : 16 bits
Compression mode : Lossy
Stream size : 297 MiB (7%)
Title : DVO [ Кубик в кубе ]
Default : No
Forced : No
Menu
00:00:00.000 : en:Chapter 01
00:09:17.098 : en:Chapter 02
00:16:39.707 : en:Chapter 03
00:26:43.393 : en:Chapter 04
00:31:17.041 : en:Chapter 05
00:46:37.544 : en:Chapter 06
00:53:55.857 : en:Chapter 07
01:01:32.605 : en:Chapter 08
01:15:53.966 : en:Chapter 09
01:26:55.209 : en:Chapter 10
01:38:46.754 : en:Chapter 11
01:44:39.481 : en:Chapter 12
-

Скриншоты


[Профиль] [ЛС]
Кто просматривает тему:

Показать сообщения:    

Текущее время: Сегодня 04:22

Часовой пояс: GMT



Вы не можете начинать темы
Вы не можете отвечать на сообщения
Вы не можете редактировать свои сообщения
Вы не можете удалять свои сообщения
Вы не можете голосовать в опросах
Вы не можете прикреплять файлы к сообщениям
Вы не можете скачивать файлы