Ип Ман / Yip Man / Ip Man (2008) BDRip 720p | Ger Transfer

 
Автор Сообщение

Russian Mafia ®

Пол:

Стаж: 1 год 8 месяцев

Сообщений: 4257



Награды: 10 (Подробнее)

Mega Seeder 2 (Количество: 1) Top Releaser 5 (Количество: 1) Top Releaser 3 (Количество: 1)
Торрент-статистика

Создавать темы 26-Сен-2015 18:30

[Цитировать]

Страна: Гонконг, Китай
Жанр: боевик, драма, биография, история
Год выпуска: 2008
Продолжительность: 01:46:31
Перевод: Авторский [Сербин,Юрий] + Профессиональный (двухголосый, закадровый)[HTB+] + Профессиональный (многоголосый, закадровый)[CTC]-Режиссер: Уилсон Ип / Wilson Yip-В ролях: Донни Ен (Yip Man), Саймон Ям (Chow Ching-Chuen), Ка Танг Лам (Captain Lei Chiu), Фан Сю-Вонг (Jin Shan Zhao / Kam Shan-Chau), Линн Хун (Cheung Wing-Sing), Хироюки Икэути (Miura), Юй Син (Master Zealot Lam), Чен Зи Хуи (Master Lau), Ю-Нам Вонг (Sa Dam Yun), Чжан Бо (Jin Shan Zhao's underling), Ли Чак (Yip Chun), Сюй Чуань-Цзянь (Cotton Mill Worker)-Описание: Ип Ман - признанный мастер кунг фу, живущий в Фошане, городе, славном своими школами боевых искусств. Ип Ман практикует Вин Чун и хотя является сильнейшим бойцом города, своей школы у него нет, и он не берет учеников. Дома он проводит лишь легкие спарринги с приятелями, чтобы указать на ошибки друг друга. Проходят годы, Китай захватывают воинственные японцы, и Ип Ман оказывается одним из немногих, кто даже в жесточайших условиях оккупации не забывает о чести, достоинстве и, конечно же, мудрости, которую несет в себе кунг-фу.-
MPAA: R - Лицам до 17 лет обязательно присутствие взрослого-Семпл-Качество: BDRip
Контейнер: MKV
Видео: AVC, 1280x544 (2.35:1), 5045 kbps, 23.976 fps, 0.302 bpp
Аудио №1: русский / AC3 / 5.1 / 48 kHz / 448 kbps
Аудио №2: русский / AC3 / 2.0 / 48 kHz / 192 kbps
Аудио №3: русский / AC3 / 2.0 / 48 kHz / 192 kbps
Навигация по главам: есть-

Media Info

-----------------------------------------------------------
x264 [info]: frame I:2235 Avg QP:19.07 size: 93237
x264 [info]: frame P:86568 Avg QP:21.69 size: 36125
x264 [info]: frame B:64450 Avg QP:22.95 size: 10756
-----------------------------------------------------------
Format : Matroska
Format version : Version 2
File size : 4.37 GiB
Duration : 1h 46mn
Overall bit rate : 5 876 Kbps
Movie name : = Ип Ман / Ip Man BDRip by SC Kosmos =
Encoded date : UTC 2013-11-22 22:20:20
Writing application : mkvmerge v5.3.0 ('I could have danced') built on Feb 9 2012 10:38:07
Writing library : libebml v1.2.3 + libmatroska v1.3.0
Video
ID : 1
Format : AVC
Format/Info : Advanced Video Codec
Format profile : High@L4.1
Format settings, CABAC : Yes
Format settings, ReFrames : 6 frames
Codec ID : V_MPEG4/ISO/AVC
Duration : 1h 46mn
Bit rate : 5 045 Kbps
Width : 1 280 pixels
Height : 544 pixels
Display aspect ratio : 2.35:1
Frame rate : 23.976 fps
Color space : YUV
Chroma subsampling : 4:2:0
Bit depth : 8 bits
Scan type : Progressive
Bits/(Pixel*Frame) : 0.302
Stream size : 3.67 GiB (84%)
Title : Ип Ман / Ip Man BDRip by SC Kosmos
Writing library : x264 core 140 r2377 1ca7bb9
Encoding settings : cabac=1 / ref=6 / deblock=1:-2:-2 / analyse=0x3:0x113 / me=umh / subme=11 / psy=1 / psy_rd=1.00:0.00 / mixed_ref=1 / me_range=32 / chroma_me=1 / trellis=2 / 8x8dct=1 / cqm=0 / deadzone=21,11 / fast_pskip=0 / chroma_qp_offset=-2 / threads=12 / lookahead_threads=1 / sliced_threads=0 / nr=0 / decimate=1 / interlaced=0 / bluray_compat=0 / constrained_intra=0 / bframes=8 / b_pyramid=2 / b_adapt=1 / b_bias=0 / direct=1 / weightb=1 / open_gop=0 / weightp=2 / keyint=240 / keyint_min=23 / scenecut=40 / intra_refresh=0 / rc_lookahead=40 / rc=2pass / mbtree=0 / bitrate=5045 / ratetol=1.0 / qcomp=0.60 / qpmin=0 / qpmax=69 / qpstep=4 / cplxblur=20.0 / qblur=0.5 / vbv_maxrate=50000 / vbv_bufsize=50000 / nal_hrd=none / filler=0 / ip_ratio=1.40 / pb_ratio=1.30 / aq=1:1.00 / zones=148900,153253,b=0.27
Language : Chinese
Default : Yes
Forced : No
Audio #1
ID : 2
Format : AC-3
Format/Info : Audio Coding 3
Mode extension : CM (complete main)
Codec ID : A_AC3
Duration : 1h 46mn
Bit rate mode : Constant
Bit rate : 448 Kbps
Channel(s) : 6 channels
Channel positions : Front: L C R, Side: L R, LFE
Sampling rate : 48.0 KHz
Bit depth : 16 bits
Compression mode : Lossy
Stream size : 341 MiB (8%)
Title : AVO [ Юрий Сербин ]
Language : Russian
Default : Yes
Forced : No
Audio #2
ID : 3
Format : AC-3
Format/Info : Audio Coding 3
Mode extension : CM (complete main)
Codec ID : A_AC3
Duration : 1h 46mn
Bit rate mode : Constant
Bit rate : 192 Kbps
Channel(s) : 2 channels
Channel positions : Front: L R
Sampling rate : 48.0 KHz
Bit depth : 16 bits
Compression mode : Lossy
Stream size : 146 MiB (3%)
Title : DVO [ HTB+ ]
Language : Russian
Default : No
Forced : No
Audio #3
ID : 4
Format : AC-3
Format/Info : Audio Coding 3
Mode extension : CM (complete main)
Codec ID : A_AC3
Duration : 1h 46mn
Bit rate mode : Constant
Bit rate : 192 Kbps
Channel(s) : 2 channels
Channel positions : Front: L R
Sampling rate : 48.0 KHz
Bit depth : 16 bits
Compression mode : Lossy
Stream size : 146 MiB (3%)
Title : MVO [ CTC ]
Language : Russian
Default : No
Forced : No
Menu
00:00:00.000 : en:00:00:00.000
00:09:41.039 : en:00:09:41.039
00:17:47.692 : en:00:17:47.692
00:27:31.775 : en:00:27:31.775
00:37:30.290 : en:00:37:30.290
00:46:38.254 : en:00:46:38.254
00:55:37.876 : en:00:55:37.876
01:05:07.529 : en:01:05:07.529
01:16:40.679 : en:01:16:40.679
01:26:05.494 : en:01:26:05.494
01:35:39.901 : en:01:35:39.901
01:43:31.455 : en:01:43:31.455
-

Скриншоты


[Профиль] [ЛС]
Кто просматривает тему:

Показать сообщения:    

Текущее время: Сегодня 20:43

Часовой пояс: GMT



Вы не можете начинать темы
Вы не можете отвечать на сообщения
Вы не можете редактировать свои сообщения
Вы не можете удалять свои сообщения
Вы не можете голосовать в опросах
Вы не можете прикреплять файлы к сообщениям
Вы не можете скачивать файлы