Инцидент / Incidente (Мариано Каттанео / Mariano Cattaneo) [2010, Аргентина, Ужасы, DVDRip] VO

 
Автор Сообщение

painkiller ®

Стаж: 2 года 3 месяца

Сообщений: 582



Награды: Нет

Торрент-статистика

Создавать темы 18-Авг-2014 14:16

[Цитировать]

Инцидент / Incidente
Страна: Аргентина
Жанр: Ужасы
Год выпуска: 2010
Продолжительность: 01:18:17
Перевод: Одноголосый закадровый (Авгур)перевод на русский язык [МЕГАПЫХАРЬ & "Ох! Студия"]
Cубтитры: нет
Режиссер: Мариано Каттанео / Mariano Cattaneo
В ролях: Андрес Борги, Паула Сарруэга, Дэни Каско
Описание: Псевдо-документальный аргентинский ремейк испанского "Репортажа" и американского "Карантина". Журналистка со съемочной группы отправляется на закрытый завод снять репортаж о кровавом убийстве двухлетней давности. Через какое-то время все начинают понимать, что здесь был совершен какой-то древний сатанинский ритуал. И недремлющие демоны, вырвавшиеся из преисподни, уже начинают охоту за новыми жертвами.
Сэмпл: http://multi-up.com/954054
Качество видео: DVDRip
Формат видео: AVI

Видео: 720x400 (1.80:1), 25 fps, XviD MPEG-4 ~1027 kbps avg, 0.14 bit/pixel
Аудио: 44.100 kHz, MPEG Layer 3, 2 ch, ~256.00 kbps avg

MediaInfo

General
Complete name : I:\Работа\Охстудия\Incidente.2010.avi
Format : AVI
Format/Info : Audio Video Interleave
File size : 726 MiB
Duration : 1h 18mn
Overall bit rate : 1 296 Kbps
Writing application : Lavf52.39.1
Video
ID : 0
Format : xvid
Codec ID : xvid
Duration : 1h 18mn
Bit rate : 1 028 Kbps
Width : 720 pixels
Height : 400 pixels
Display aspect ratio : 16:9
Frame rate : 25.000 fps
Bits/(Pixel*Frame) : 0.143
Stream size : 576 MiB (79%)
Audio
ID : 1
Format : MPEG Audio
Format version : Version 1
Format profile : Layer 3
Mode : Joint stereo
Codec ID : 55
Codec ID/Hint : MP3
Duration : 1h 18mn
Bit rate mode : Constant
Bit rate : 256 Kbps
Channel(s) : 2 channels
Sampling rate : 44.1 KHz
Compression mode : Lossy
Stream size : 143 MiB (20%)
Alignment : Aligned on interleaves
Interleave, duration : 26 ms (0.65 video frame)
Interleave, preload duration : 26 ms

Скриншот c названием фильма

Скриншоты



Релиз от:
[Профиль] [ЛС]

Создавать темы 06-Авг-2015 23:06 (спустя 11 месяцев 19 дней)

Топик был перенесен из форума Фильмы до 2014 года в форум Фильмы до 2012 года
sergej644
 

Создавать темы 12-Июн-2016 07:54 (спустя 1 год 9 месяцев)

Топик был перенесен из форума Фильмы 2011 года в форум Фильмы 2010 года
Russian Mafia
 
Кто просматривает тему:

Показать сообщения:    

Текущее время: Сегодня 12:14

Часовой пояс: GMT



Вы не можете начинать темы
Вы не можете отвечать на сообщения
Вы не можете редактировать свои сообщения
Вы не можете удалять свои сообщения
Вы не можете голосовать в опросах
Вы не можете прикреплять файлы к сообщениям
Вы не можете скачивать файлы