Инфинити - Крылья (2014) [H.264/1080p] HDTVRip

 
Автор Сообщение

sergej644 ®

Пол:

Стаж: 4 года 11 месяцев

Сообщений: 6038

Откуда: Soviet Union



Награды: Нет

Торрент-статистика

Создавать темы 18-Окт-2014 18:41

[Цитировать]

-Инфинити - Крылья (2014)[H.264/1080p] HDTVRip- Исполнитель: Инфинити
Год выпуска: 2014
Жанр: Pop
Продолжительность: 00:03:31
Описание: Изначально клип задумывался как эксперимент, так как с командой режиссера Алексея Дымова «Инфинити» работает впервые. Темой видео стало такое популярное явление сейчас, как селфи: «Мы увидим, каким образом и насколько сильно можно погрузиться в интернет-реальность и мир фотографии. А к чему это приведем главного героя, вы непременно узнаете, посмотрев клип!», - говорит солистка группы Татьяна.
Качество видео: HDTVRip
Видеокодек: MPEG-4 AVC/H.264
Битрейт видео: ~8005 Кбит/с
Размер кадра: 1920x1080 (16:9), 25,000 кадров/с
Аудиокодек: AAC, 2 ch, stereo
Битрейт аудио: 317 Кбит/с

MediaInfo:

Общее
Полное имя : Инфинити - Крылья.mp4
Формат : MPEG-4
Профиль формата : Base Media / Version 2
Идентификатор кодека : mp42
Размер файла : 210 Мбайт
Продолжительность : 3 м. 31 с.
Режим общего битрейта : Переменный
Общий поток : 8326 Кбит/сек
Дата кодирования : UTC 2014-10-08 09:02:57
Дата пометки : UTC 2014-10-08 09:03:00
©TIM : 00:00:00:00
©TSC : 25
©TSZ : 1
Видео
Идентификатор : 1
Формат : AVC
Формат/Информация : Advanced Video Codec
Профиль формата : [url=mailto:Main@L4.2]Main@L4.2[/url]
Параметр CABAC формата : Да
Параметр ReFrames формата : 3 кадра
Идентификатор кодека : avc1
Идентификатор кодека/Информация : Advanced Video Coding
Продолжительность : 3 м. 31 с.
Вид битрейта : Переменный
Битрейт : 8005 Кбит/сек
Максимальный битрейт : 12,0 Мбит/сек
Ширина : 1920 пикселей
Высота : 1080 пикселей
Соотношение сторон : 16:9
Режим частоты кадров : Постоянный
Частота кадров : 25,000 кадров/сек
Стандарт вещания : PAL
Цветовое пространство : YUV
Субдискретизация насыщенности : 4:2:0
Битовая глубина : 8 бит
Тип развёртки : Прогрессивная
Бит/(Пиксели*Кадры) : 0.154
Размер потока : 202 Мбайт (96%)
Язык : English
Дата кодирования : UTC 2014-10-08 09:02:57
Дата пометки : UTC 2014-10-08 09:02:57
Аудио
Идентификатор : 2
Формат : AAC
Формат/Информация : Advanced Audio Codec
Профиль формата : LC
Идентификатор кодека : 40
Продолжительность : 3 м. 31 с.
Продолжительность оригинала : 3 м. 31 с.
Вид битрейта : Переменный
Битрейт : 317 Кбит/сек
Максимальный битрейт : 420 Кбит/сек
Каналы : 2 канала
Расположение каналов : Front: L R
Частота : 48,0 КГц
Метод сжатия : С потерями
Размер потока : 8,02 Мбайт (4%)
Размер потока оригинала : 8,02 Мбайт (4%)
Язык : English
Дата кодирования : UTC 2014-10-08 09:02:57
Дата пометки : UTC 2014-10-08 09:02:57
Скриншоты:
[Профиль] [ЛС]

Создавать темы 13-Авг-2015 12:07 (спустя 9 месяцев 25 дней)

Топик был перенесен из форума Видеоклипы в форум Наши клипы
sergej644
 
Кто просматривает тему:

Форум Тема Автор Размер
Наши клипы Инфинити - Крылья [2014, Pop, Master] sergej644 763 MB
Показать сообщения:    

Текущее время: Сегодня 06:26

Часовой пояс: GMT



Вы не можете начинать темы
Вы не можете отвечать на сообщения
Вы не можете редактировать свои сообщения
Вы не можете удалять свои сообщения
Вы не можете голосовать в опросах
Вы не можете прикреплять файлы к сообщениям
Вы не можете скачивать файлы