Инфинити - Крылья [2014, Pop, Master]

 
Автор Сообщение

sergej644 ®

Пол:

Стаж: 4 года 11 месяцев

Сообщений: 6043

Откуда: Soviet Union



Награды: Нет

Торрент-статистика

Создавать темы 04-Янв-2015 00:06

[Цитировать]

Инфинити - Крылья -Жанр: Pop
Продолжительность: 00:03:31
Год выпуска: 2014-Качество: Master
Контейнер: MP4
Видео кодек: H.264
Аудио кодек: AAC
Видео: AVC, 1920x1080, 28.9 Mbps, 25.000 fps
Аудио: AAC, 320 Kbps, 48.0 KHz, 2 channels
-

Отчёт MediaInfo

Общее
Полное имя                               : Инфинити - Крылья.mp4
Формат                                   : MPEG-4
Профиль формата                          : Base Media / Version 2
Идентификатор кодека                     : mp42
Размер файла                             : 763 Мбайт
Продолжительность                        : 3 м. 31 с.
Общий поток                              : 30,2 Мбит/сек
Дата кодирования                         : UTC 2014-09-30 10:52:30
Дата пометки                             : UTC 2014-09-30 10:54:54
Видео
Идентификатор                            : 1
Формат                                   : AVC
Формат/Информация                        : Advanced Video Codec
Профиль формата                          : High@L4.1
Параметр CABAC формата                   : Нет
Параметр ReFrames формата                : 2 кадра
Параметр GOP формата                     : M=1, N=30
Идентификатор кодека                     : avc1
Идентификатор кодека/Информация          : Advanced Video Coding
Продолжительность                        : 3 м. 31 с.
Битрейт                                  : 28,9 Мбит/сек
Ширина                                   : 1920 пикселей
Высота                                   : 1080 пикселей
Соотношение сторон                       : 16:9
Режим частоты кадров                     : Постоянный
Частота кадров                           : 25,000 кадров/сек
Цветовое пространство                    : YUV
Субдискретизация насыщенности            : 4:2:0
Битовая глубина                          : 8 бит
Тип развёртки                            : Прогрессивная
Бит/(Пиксели*Кадры)                      : 0.558
Размер потока                            : 731 Мбайт (96%)
Заголовок                                : Ћбработчик видео Apple
Язык                                     : English
Дата кодирования                         : UTC 2014-09-30 10:51:36
Дата пометки                             : UTC 2014-09-30 10:54:54
Основные цвета                           : BT.709
Характеристики трансфера                 : BT.709
Коэффициенты матрицы                     : BT.709
Аудио
Идентификатор                            : 2
Формат                                   : AAC
Формат/Информация                        : Advanced Audio Codec
Профиль формата                          : LC
Идентификатор кодека                     : 40
Продолжительность                        : 3 м. 31 с.
Продолжительность оригинала              : 3 м. 31 с.
Вид битрейта                             : Постоянный
Битрейт                                  : 320 Кбит/сек
Каналы                                   : 2 канала
Расположение каналов                     : Front: L R
Частота                                  : 48,0 КГц
Метод сжатия                             : С потерями
Размер потока                            : 7,96 Мбайт (1%)
Размер потока оригинала                  : 7,96 Мбайт (1%)
Заголовок                                : Ћбработчик звука Apple
Язык                                     : English
Дата кодирования                         : UTC 2014-09-30 10:51:36
Дата пометки                             : UTC 2014-09-30 10:54:54
Прочее #1
Идентификатор                            : 3
Тип                                      : Hint
Формат                                   : RTP
Идентификатор кодека                     : rtp
Продолжительность                        : 3 м. 31 с.
Язык                                     : English
Дата кодирования                         : UTC 2014-09-30 10:51:36
Дата пометки                             : UTC 2014-09-30 10:54:54
Продолжительность оригинала              : 211925
Количество кадров оригинала              : 9417
Размер потока оригинала                  : 460288
Размер потока                            : 460288
Вид битрейта                             : VBR
Прочее #2
Идентификатор                            : 4
Тип                                      : Hint
Формат                                   : RTP
Идентификатор кодека                     : rtp
Продолжительность                        : 3 м. 31 с.
Язык                                     : English
Дата кодирования                         : UTC 2014-09-30 10:51:50
Дата пометки                             : UTC 2014-09-30 10:54:54

Скриншоты

[Профиль] [ЛС]

Создавать темы 13-Авг-2015 12:07 (спустя 7 месяцев 9 дней)

Топик был перенесен из форума Видеоклипы в форум Наши клипы
sergej644
 
Кто просматривает тему:

Форум Тема Автор Размер
Наши клипы Инфинити - Крылья (2014) [H.264/1080p] HDTVRip sergej644 210 MB
Показать сообщения:    

Текущее время: Сегодня 02:20

Часовой пояс: GMT



Вы не можете начинать темы
Вы не можете отвечать на сообщения
Вы не можете редактировать свои сообщения
Вы не можете удалять свои сообщения
Вы не можете голосовать в опросах
Вы не можете прикреплять файлы к сообщениям
Вы не можете скачивать файлы