Инфильтрация / Hitganvut Yehidim (Довер Кошашвили / Dover Koshashvili) [2010, Израиль, драма, DVDRip] + Sub Rus + Original Heb

 
Автор Сообщение

painkiller ®

Стаж: 2 года 3 месяца

Сообщений: 582



Награды: Нет

Торрент-статистика

Создавать темы 14-Авг-2014 09:11

[Цитировать]

Инфильтрация / Hitganvut Yehidim
Страна: Израиль
Жанр: драма
Год выпуска: 2010
Продолжительность: 01:56:51
Перевод: Субтитры
Cубтитры: русские
Оригинальная аудиодорожка: иврит
Режиссер: Довер Кошашвили / Dover Koshashvili
В ролях: Оз Захави, Ассаф Бен-Шимон, Михаэль Алони, Гай Адлер, Лиэль Данир, Хадас Морано, Бенни Эльдар, Шай Кадими, Одед Йехзакиэль, Галь Лев
Описание: 1956 год. Лагерь новобранцев БАХАД-4 в Црифине. Призывники, имеющие подлинные или мнимые проблемы со здоровьем (физическим и ментальным), которым медкомиссия присвоила категорию "каф-ламед" (кошер лакуй, ограниченная боеспоспособность) проходят курс молодого бойца. Пёстрая собралась команда: цабры (уроженцы Израиля)-ашкеназы и цабры-сефарды, репатрианты из послевоенной, "постхолокостной", Европы, репатрианты из Северной Африки и Йемена. Рафинированный ашкеназский юноша, играющий скрипичные сонаты Шуберта, житель аристократической иерусалимской Рехавии; сефардский красавец-сердцеед, дамский угодник; марокканский Иванушка-дурачок, не скрывающий своего влечения к мужчинам.
Среди них светловолосый киббуцник, новый израильтянин, воплощение сионистского мифа, мечтавший о боевых частях, но попавший в столь позорную компанию по недоразумению (так, во всяком случае, полагает он сам). Развернутая метафора сионистского плавильного котла, в котором, как мы хорошо знаем, новые иммигранты-репатрианты (ашкеназы, сефарды, "поляки", "румыны", "марокканцы") должны быть переплавлены в единую нацию.
Доп. информация: Рип, как и локализированный постер, сделаны мною.
Сэмпл: http://multi-up.com/984361
Качество видео: DVDRip
Формат видео: AVI
Видео: Xvid 704x400 25.00fps 1539kbps [Video 0]
Аудио: Dolby AC3 48000Hz stereo 192kbps [Audio 1]
Формат субтитров: softsub (SRT)

Пример субтитров

465
00:35:45,060 --> 00:35:48,575
Авнер, ты хочешь сказать мне
что-нибудь?
466
00:35:48,700 --> 00:35:49,735
Что, командир?
467
00:35:49,860 --> 00:35:52,328
Не важно. Продолжай спать.
468
00:36:22,460 --> 00:36:24,451
Второй раз я спасаю тебя
от трибунала.
469
00:36:24,580 --> 00:36:26,775
Ты мог бы быть
лучшим курсантом роты.
470
00:36:26,900 --> 00:36:28,856
Зачем ты сделал это?
471
00:36:29,060 --> 00:36:32,291
Меня направили сюда по ошибке.
Моё место не здесь, командир.
472
00:36:32,820 --> 00:36:35,857
Я говорю с тобой не как командир.
Я пытаюсь помочь тебе.
473
00:36:36,380 --> 00:36:38,052
Ты можешь сказать мне.
Не смущайся.
474
00:36:38,180 --> 00:36:40,216
У тебя есть какая-то проблема?
475
00:36:42,340 --> 00:36:45,730
Командир, если хотеть чего-то
слишком сильно,
476
00:36:45,860 --> 00:36:47,851
можно потерять это.
477
00:36:48,340 --> 00:36:50,171
Если ты хочешь,
478
00:36:50,820 --> 00:36:54,017
я пока ещё могу направить тебя
на курс командиров отделений,
здесь, на 4-й базе.
479
00:36:54,300 --> 00:36:56,052
Кто знает? Может быть, потом,
пойдёшь на офицерский курс?
480
00:36:56,180 --> 00:36:58,171
Командир, я хочу быть десантником.
481
00:36:58,300 --> 00:37:00,416
Что с того, что ты кибуцник?
482
00:37:00,580 --> 00:37:03,253
Что, ты думаешь, что ты лучше меня?
483
00:37:03,580 --> 00:37:05,172
Я хуже тебя?
484
00:37:05,700 --> 00:37:08,134
Почему ты смотришь на всех свысока?
485
00:37:09,420 --> 00:37:12,298
Ты закончишь очень плохо, если не
приспособишься к своему положению.

MediaInfo

Format : AVI
Format/Info : Audio Video Interleave
File size : 1.42 GiB
Duration : 1h 56mn
Overall bit rate : 1 741 Kbps
Video
ID : 0
Format : MPEG-4 Visual
Format profile : Advanced Simple@L5
Format settings, BVOP : 2
Format settings, QPel : No
Format settings, GMC : No warppoints
Format settings, Matrix : Default (H.263)
Codec ID : XVID
Codec ID/Hint : XviD
Duration : 1h 56mn
Bit rate : 1 540 Kbps
Width : 704 pixels
Height : 400 pixels
Display aspect ratio : 16:9
Frame rate : 25.000 fps
Color space : YUV
Chroma subsampling : 4:2:0
Bit depth : 8 bits
Scan type : Progressive
Compression mode : Lossy
Bits/(Pixel*Frame) : 0.219
Stream size : 1.26 GiB (88%)
Writing library : XviD 1.2.1 (UTC 2008-12-04)
Audio
ID : 1
Format : AC-3
Format/Info : Audio Coding 3
Mode extension : CM (complete main)
Codec ID : 2000
Duration : 1h 56mn
Bit rate mode : Constant
Bit rate : 192 Kbps
Channel(s) : 2 channels
Channel positions : Front: L R
Sampling rate : 48.0 KHz
Bit depth : 16 bits
Compression mode : Lossy
Stream size : 160 MiB (11%)
Alignment : Split accross interleaves
Interleave, duration : 40 ms (1.00 video frame)
Interleave, preload duration : 500 ms

Скриншоты




[Профиль] [ЛС]

Создавать темы 06-Авг-2015 23:17 (спустя 11 месяцев 23 дня)

Топик был перенесен из форума Фильмы до 2014 года в форум Фильмы до 2012 года
sergej644
 

Создавать темы 12-Июн-2016 07:54 (спустя 1 год 9 месяцев)

Топик был перенесен из форума Фильмы 2011 года в форум Фильмы 2010 года
Russian Mafia
 
Кто просматривает тему:

Форум Тема Автор Размер
BBC BBC: Жизнь млекопитающих / The Life of Mammals [серии 1-9 из 10] (Марк Линфилд, Нил Лукас, Ванесса Берловитц, Майк Сализбэрри, Хью Кордейт) [2002-2003 г., Документальный, природа, зоология, фау... skorpionN 11.95 GB
Nat Geo Wild Nat Geo Wild: Дикие Гавайи / Wild Hawaii (Wildes Hawaii) [серии 1-2 из 2] (Карен Гринфилд / Karen Greenfield) [2013 г., Документальный, природа, флора, фауна, BDRip 720p] skorpionN 3.91 GB
Отечественные мультфильмы Баран и роза (К. Курепыльд) [1982, Таллинфильм, кукольный, для взрослых, TeleSynch] painkiller 100 MB
Документальные HD Дикие Гавайи. Тайны морских глубин / Wild Hawaii. Secrets of the Deep (Карен Гринфилд) [2013, Документальный, BDRip 720p] TorrentFilm 1.91 GB
Фильмы 2014 года Типа копы / Let's Be Cops (Люк Гринфилд) [2014 г., комедия, BDRip] BOSS 1.46 GB
Фильмы 2014 года Типа копы / Let\'s Be Cops (Люк Гринфилд / Luke Greenfield) [2014, США, Комедия, HDRip-AVC] Dub ([iTunes]) + Sub Rus TorrentFilm 2.91 GB
Фильмы 2014 года Типа копы / Let\'s Be Cops (Люк Гринфилд / Luke Greenfield) [2014, США, комедия, криминал, BDRip] Dub + Original Eng + Subs TorrentFilm 2.18 GB
Фильмы 2014 года Типа копы / Let\'s Be Cops (Люк Гринфилд / Luke Greenfield) [2014, США, комедия, криминал, BDRip] Dub CEE TorrentFilm 1.46 GB
Показать сообщения:    

Текущее время: Сегодня 10:25

Часовой пояс: GMT



Вы не можете начинать темы
Вы не можете отвечать на сообщения
Вы не можете редактировать свои сообщения
Вы не можете удалять свои сообщения
Вы не можете голосовать в опросах
Вы не можете прикреплять файлы к сообщениям
Вы не можете скачивать файлы