Инферно в 3Д / Из преисподней / Out of Inferno 3D (Оксид Пан, Дэнни Пан / Oxide Pang Chun, Danny Pang) [2013, Катастрофа, Драма, BDrip-AVC] VO, Half OverUnder / Вертикальная анаморфная стереопара

 
Автор Сообщение

TorrentFilm ®

Пол:

Стаж: 1 год 11 месяцев

Сообщений: 7741



Награды: Нет

Торрент-статистика

Создавать темы 04-Янв-2016 00:02

[Цитировать]

Инферно / Из преисподней
Out of Inferno

Год выпуска: 2013
Страна: Китай, Гонконг (Universe Entertainment, Sun Entertainment Culture, Bona International Film Group)
Жанр: Катастрофа, Драма
Продолжительность: 01:47:20
Озвучка: Любительский одноголосый закадровый - Den904 (перевод - chup)
Режиссеры: Оксид Пан, Дэнни Пан / Oxide Pang Chun, Danny Pang
В ролях: Чинг Ван Лау, Луис Ку, Анджелика Ли, Чэнь Сы Чэн, Натали Тонг, Сиу-Фай Чунг, QiaoQiao Jin, Crystal Lee, Marc Ma, ShiuHung Hui, Дзиньшэн Дзан, Джо Ма
Описание: Команде гонконгских пожарных придется столкнуться не только с небывалой силой пожара, но и с непростой задачей по спасению оказавшихся замкнутыми в огненном котле людьми.-Премьера (мир): 30 сентября 2013
. .
-Качество: BDRip (by Ash61)
Контейнер: MKV
Формат 3D: Half OverUnder / Вертикальная анаморфная стереопара
Порядок ракурсов: левый ракурс первый
Видео кодек: x264
Аудио кодек: AC3-Видео: AVC / 23,976 fps / 1920х1080p / 11.6 Mbps
Аудио:
#1 - Русский / AC3 / 48 KHz / 5.1 ch / 640 Kbps (VO - den904) Edit & Mix by Ash61 (для имеющихся на данный момент в инете 2D-HDrip'ов не подойдёт)
#2 - Китайский / AC3 / 48 KHz / 5.1 ch / 640 Kbps (Original - BD 3D)
Субтитры: Внешние (SRT UTF-8) English Full

MediaInfo

General
Unique ID : 189666246095511901197517041117040842624 (0x8EB063E95B3ED3F58E4CA2AC63919780)
Complete name : E:\OutOfInferno(2013)3D-halfOU(Ash61)VO\OutOfInferno(2013)3D-halfOU(Ash61)VO.mkv
Format : Matroska
Format version : Version 2
File size : 9.87 GiB
Duration : 1h 47mn
Overall bit rate : 13.2 Mbps
Movie name : Инферно (Из преисподней) / Out of Inferno (2013) 3D
Encoded date : UTC 2014-01-20 14:50:57
Writing application : mkvmerge v5.8.0 ('No Sleep / Pillow') built on Sep 2 2012 15:37:04
Writing library : libebml v1.2.3 + libmatroska v1.3.0
Video
ID : 1
Format : AVC
Format/Info : Advanced Video Codec
Format profile : High@L4.1
Format settings, CABAC : Yes
Format settings, ReFrames : 4 frames
Codec ID : V_MPEG4/ISO/AVC
Duration : 1h 47mn
Bit rate : 11.6 Mbps
Width : 1 920 pixels
Height : 1 080 pixels
Display aspect ratio : 16:9
Frame rate mode : Constant
Frame rate : 23.976 fps
Color space : YUV
Chroma subsampling : 4:2:0
Bit depth : 8 bits
Scan type : Progressive
Bits/(Pixel*Frame) : 0.234
Stream size : 8.72 GiB (88%)
Title : BDRip by Ash61
Writing library : x264 core 129 r2245 bc13772
Encoding settings : cabac=1 / ref=4 / deblock=1:-3:-3 / analyse=0x3:0x113 / me=umh / subme=10 / psy=1 / psy_rd=1.00:0.15 / mixed_ref=1 / me_range=32 / chroma_me=1 / trellis=2 / 8x8dct=1 / cqm=0 / deadzone=21,11 / fast_pskip=1 / chroma_qp_offset=-3 / threads=12 / lookahead_threads=2 / sliced_threads=0 / nr=0 / decimate=1 / interlaced=0 / bluray_compat=0 / constrained_intra=0 / bframes=8 / b_pyramid=2 / b_adapt=2 / b_bias=0 / direct=3 / weightb=1 / open_gop=0 / weightp=2 / keyint=250 / keyint_min=23 / scenecut=40 / intra_refresh=0 / rc_lookahead=60 / rc=crf / mbtree=1 / crf=17.5 / qcomp=0.70 / qpmin=0 / qpmax=69 / qpstep=4 / vbv_maxrate=40000 / vbv_bufsize=30000 / crf_max=0.0 / nal_hrd=none / frame-packing=4 / ip_ratio=1.40 / aq=1:0.70
Language : Chinese
Default : Yes
Forced : No
Audio #1
ID : 2
Format : AC-3
Format/Info : Audio Coding 3
Mode extension : CM (complete main)
Format settings, Endianness : Big
Codec ID : A_AC3
Duration : 1h 47mn
Bit rate mode : Constant
Bit rate : 640 Kbps
Channel(s) : 6 channels
Channel positions : Front: L C R, Side: L R, LFE
Sampling rate : 48.0 KHz
Bit depth : 16 bits
Compression mode : Lossy
Stream size : 491 MiB (5%)
Title : Одноголосый закадровый - Den904 (edit & mix by Ash61)
Language : Russian
Default : Yes
Forced : No
Audio #2
ID : 3
Format : AC-3
Format/Info : Audio Coding 3
Mode extension : CM (complete main)
Format settings, Endianness : Big
Codec ID : A_AC3
Duration : 1h 47mn
Bit rate mode : Constant
Bit rate : 640 Kbps
Channel(s) : 6 channels
Channel positions : Front: L C R, Side: L R, LFE
Sampling rate : 48.0 KHz
Bit depth : 16 bits
Compression mode : Lossy
Stream size : 491 MiB (5%)
Title : Original - BD 3D
Language : Chinese
Default : No
Forced : No
Menu
00:00:00.000 : :1
00:06:25.802 : :2
00:14:34.082 : :3
00:22:52.663 : :4
00:32:32.242 : :5
00:43:27.605 : :6
00:52:51.001 : :7
01:02:26.159 : :8
01:11:24.113 : :9
01:21:37.726 : :10
01:29:25.193 : :11
01:38:43.751 : :12

Для оценки 3Д - Анимированные скрины















[Профиль] [ЛС]
Показать сообщения:    

Текущее время: Сегодня 04:57

Часовой пояс: GMT



Вы не можете начинать темы
Вы не можете отвечать на сообщения
Вы не можете редактировать свои сообщения
Вы не можете удалять свои сообщения
Вы не можете голосовать в опросах
Вы не можете прикреплять файлы к сообщениям
Вы не можете скачивать файлы