Инферно в 3Д / Inferno 3D (Рой Уорд Бейкер / Roy Ward Baker) [1953, Триллер, Драма, Криминал, BDrip-AVC] VO, Half OverUnder / Вертикальная анаморфная стереопара

 
Автор Сообщение

TorrentFilm ®

Пол:

Стаж: 2 года

Сообщений: 7741



Награды: Нет

Торрент-статистика

Создавать темы 29-Фев-2016 00:08

[Цитировать]

Инферно
Inferno
- Год выпуска: 1953
Страна: США (20th Century Fox)
Жанр: Триллер, Драма, Криминал
Продолжительность: 01:23:38
Перевод: Одноголосый закадровый - Lord32x
Режиссер: Рой Уорд Бейкер / Roy Ward Baker-В ролях: Роберт Райан (Donald Whitley Carson III), Ронда Флеминг (Geraldine Carson), Уильям Ландигэн (Joseph Duncan), Ларри Китинг (Dave Emory), Генри Халл (Sam Elby), Карл Бетц (Lt. Mike Platt), Роберт Бертон (Sheriff), Роберт Адлер (Ken - Ranch Hand), Гарри Картер (Deputy Fred Parks), Чарльз Дж. Конрад, Эверетт Гласс (Mason, Carson's Butler), Эдриэнн Мэрден (Emory's Secretary), Барбара Пеппер (Waitress), Чарльз Таннен (Police Radio Broadcaster), Дэн Уайт (Lee - Ranch Hand)-Описание: Захватывающий фильм, в котором были опробованы уникальные 3Д спецэффекты. В основе сюжета же несложная интрига: испорченный до мозга костей миллионер Дональд Уитли Карсон III (Роберт Раян) после того, как сломал ногу, брошен в пустынной местности своей женой Джеральдиной, которая уезжает с места трагедии вместе со своим любовником.-Доп. инфо: Как обычно в старых фильмах, снятых в 3Д, 3Д глубокое.
Перевод сыроват, но за отсутствием на БД любых субтитров и на том спасибо!
Некоторые цвето-яркостный разбаланс между ракурсами и нечёткость правого ракурса - как было на БД.-Премьера (мир): 12 августа 1953
Бюджет: $1 055 000

. .
За русскую дорогу большое спасибо оплатившему её igor nisan и Lord32x!
-Качество: BDRip (by Ash61)
Контейнер: MKV
Формат 3D: Half OverUnder / Вертикальная анаморфная стереопара
Порядок ракурсов: левый ракурс первый-Видео: AVC / 23,976 fps / 1920х1080p / 13.4 Mbps
Аудио:
#1 - Русский / AC3 / 48 KHz / 2 ch / 192 Kbps (VO - Lord32x) (моно)
#2 - Английский / AC3 / 48 KHz / 2 ch / 192 Kbps (Original - BD 3D) (моно)
Субтитры (SRT):
Вшитые (softsub):
#1 - Русские Форсированные (включены по умолчанию)
Внешние (UTF-8):
#1 - Русские Форсированные (включены по умолчанию)

MediaInfo

General
Unique ID : 214331502992681039823844385002151339692 (0xA13EBEF77DB0FC9E886EF72F60C1E6AC)
Complete name : E:\Inferno(1953)3D-halfOU(Ash61)VO\Inferno(1953)3D-halfOU(Ash61)VO.mkv
Format : Matroska
Format version : Version 2
File size : 8.19 GiB
Duration : 1h 23mn
Overall bit rate : 14.0 Mbps
Movie name : Инферно / Inferno (1953) в 3Д
Encoded date : UTC 2016-02-14 17:09:11
Writing application : mkvmerge v5.8.0 ('No Sleep / Pillow') built on Sep 2 2012 15:37:04
Writing library : libebml v1.2.3 + libmatroska v1.3.0
Video
ID : 1
Format : AVC
Format/Info : Advanced Video Codec
Format profile : High@L4.1
Format settings, CABAC : Yes
Format settings, ReFrames : 4 frames
Codec ID : V_MPEG4/ISO/AVC
Duration : 1h 23mn
Bit rate : 13.4 Mbps
Width : 1 920 pixels
Height : 1 080 pixels
Display aspect ratio : 16:9
Frame rate mode : Constant
Frame rate : 23.976 fps
Color space : YUV
Chroma subsampling : 4:2:0
Bit depth : 8 bits
Scan type : Progressive
Bits/(Pixel*Frame) : 0.269
Stream size : 7.80 GiB (95%)
Title : BDRip by Ash61
Writing library : x264 core 146 r2538 121396c
Encoding settings : cabac=1 / ref=4 / deblock=1:-1:-1 / analyse=0x3:0x113 / me=umh / subme=10 / psy=1 / psy_rd=1.00:0.00 / mixed_ref=1 / me_range=32 / chroma_me=1 / trellis=2 / 8x8dct=1 / cqm=0 / deadzone=21,11 / fast_pskip=1 / chroma_qp_offset=-2 / threads=12 / lookahead_threads=3 / sliced_threads=0 / nr=0 / decimate=1 / interlaced=0 / bluray_compat=0 / constrained_intra=0 / bframes=12 / b_pyramid=2 / b_adapt=2 / b_bias=0 / direct=3 / weightb=1 / open_gop=0 / weightp=2 / keyint=250 / keyint_min=23 / scenecut=40 / intra_refresh=0 / rc_lookahead=60 / rc=crf / mbtree=1 / crf=18.0 / qcomp=0.70 / qpmin=10 / qpmax=69 / qpstep=4 / vbv_maxrate=40000 / vbv_bufsize=30000 / crf_max=0.0 / nal_hrd=none / filler=0 / frame-packing=4 / ip_ratio=1.40 / aq=1:0.70
Language : English
Default : Yes
Forced : No
Audio #1
ID : 2
Format : AC-3
Format/Info : Audio Coding 3
Mode extension : CM (complete main)
Format settings, Endianness : Big
Codec ID : A_AC3
Duration : 1h 23mn
Bit rate mode : Constant
Bit rate : 192 Kbps
Channel(s) : 2 channels
Channel positions : Front: L R
Sampling rate : 48.0 KHz
Bit depth : 16 bits
Compression mode : Lossy
Stream size : 115 MiB (1%)
Title : Одноголосый закадровый - Lord32x (моно)
Language : Russian
Default : Yes
Forced : No
Audio #2
ID : 3
Format : AC-3
Format/Info : Audio Coding 3
Mode extension : CM (complete main)
Format settings, Endianness : Big
Codec ID : A_AC3
Duration : 1h 23mn
Bit rate mode : Constant
Bit rate : 192 Kbps
Channel(s) : 2 channels
Channel positions : Front: L R
Sampling rate : 48.0 KHz
Bit depth : 16 bits
Compression mode : Lossy
Stream size : 115 MiB (1%)
Title : Original - BD 3D (mono)
Language : English
Default : No
Forced : No
Text
ID : 4
Format : UTF-8
Codec ID : S_TEXT/UTF8
Codec ID/Info : UTF-8 Plain Text
Title : Форсированные
Language : Russian
Default : Yes
Forced : No
Menu
00:00:00.000 : :1
00:08:34.264 : :2
00:18:45.124 : :3
00:30:50.849 : :4
00:41:49.507 : :5
00:49:02.731 : :6
01:00:20.617 : :7
01:09:10.146 : :8

Для оценки 3Д - Анимированные скрины















[Профиль] [ЛС]
Показать сообщения:    

Текущее время: Сегодня 02:30

Часовой пояс: GMT



Вы не можете начинать темы
Вы не можете отвечать на сообщения
Вы не можете редактировать свои сообщения
Вы не можете удалять свои сообщения
Вы не можете голосовать в опросах
Вы не можете прикреплять файлы к сообщениям
Вы не можете скачивать файлы