Инфекция: Фаза 2 / Contracted: Phase II (2015) WEB-DL 720p | Чистый звук

 
Автор Сообщение

достали все ®

Пол:

Стаж: 1 год 8 месяцев

Сообщений: 6565



Награды: 12 (Подробнее)

Mega Seeder 3 (Количество: 1) Mega Releaser 2 (Количество: 1) Top Releaser 3 (Количество: 1)
Торрент-статистика

Создавать темы 16-Дек-2015 10:07

[Цитировать]

Информация о фильме
Название: Инфекция: Фаза 2
Оригинальное название: Contracted: Phase II
Год выхода: 2015
Жанр: ужасы, триллер, драма
Режиссер: Джош Форбс
В ролях: Мэтт Мерсер, Марианна Палка, Морган Питер Браун, Анна Лоре, Лорел Вэйл Питер Силелла, Джон Эннис, Неджарра Таунсенд, Ричард Рили, Сюзанн Восс
О фильме: Райли, герой первой части, пытается найти лекарство от вируса, которым заразила его Саманта, до того, как он поразит его и весь остальной мир.

Выпущено: США / BoulderLight Pictures
Продолжительность: 01:18:24
Озвучивание: Дублированное [Чистый звук] Официальный звук
Файл
Формат: MKV
Качество: WEB-DL 720p
Видео: MPEG-4 AVC, 3925 kb/s, 1280x30
Аудио: Russian: AC3, 192 kb/s (2 ch) / English: AC3, 384 kb/s (6 ch)
Субтитры: English

MI

Format : Matroska
Format version : Version 2
File size : 2.51 GiB
Duration : 1h 18mn
Overall bit rate : 4 592 Kbps
Encoded date : UTC 2015-12-16 07:44:57
Writing application : mkvmerge v7.8.0 ('River Man') 32bit built on Apr 3 2015 12:11:22
Writing library : libebml v1.3.1 + libmatroska v1.4.2
Video
ID : 1
Format : AVC
Format/Info : Advanced Video Codec
Format profile : Main@L3.1
Format settings, CABAC : No
Format settings, ReFrames : 2 frames
Codec ID : V_MPEG4/ISO/AVC
Duration : 1h 18mn
Bit rate : 3 925 Kbps
Width : 1 280 pixels
Height : 530 pixels
Display aspect ratio : 2.40:1
Frame rate mode : Constant
Frame rate : 23.976 fps
Color space : YUV
Chroma subsampling : 4:2:0
Bit depth : 8 bits
Scan type : Progressive
Bits/(Pixel*Frame) : 0.241
Stream size : 2.15 GiB (85%)
Language : English
Default : Yes
Forced : No
Color range : Limited
Color primaries : BT.709
Transfer characteristics : BT.709
Matrix coefficients : BT.709
Audio #1
ID : 2
Format : AC-3
Format/Info : Audio Coding 3
Mode extension : CM (complete main)
Format settings, Endianness : Big
Codec ID : A_AC3
Duration : 1h 18mn
Bit rate mode : Constant
Bit rate : 192 Kbps
Channel(s) : 2 channels
Channel positions : Front: L R
Sampling rate : 48.0 KHz
Bit depth : 16 bits
Compression mode : Lossy
Stream size : 108 MiB (4%)
Language : Russian
Default : Yes
Forced : No
Audio #2
ID : 3
Format : AC-3
Format/Info : Audio Coding 3
Mode extension : CM (complete main)
Format settings, Endianness : Big
Codec ID : A_AC3
Duration : 1h 18mn
Bit rate mode : Constant
Bit rate : 384 Kbps
Channel(s) : 6 channels
Channel positions : Front: L C R, Side: L R, LFE
Sampling rate : 48.0 KHz
Bit depth : 16 bits
Compression mode : Lossy
Stream size : 215 MiB (8%)
Language : English
Default : No
Forced : No
Text
ID : 4
Format : UTF-8
Codec ID : S_TEXT/UTF8
Codec ID/Info : UTF-8 Plain Text
Language : English
Default : No
Forced : No
Menu
00:00:00.000 : en:1
00:11:11.000 : en:2
00:19:44.000 : en:3
00:31:55.000 : en:4
00:38:54.000 : en:5
00:49:24.000 : en:6
00:59:18.000 : en:7
01:11:30.000 : en:8

Скриншоты



[Профиль] [ЛС]
Показать сообщения:    

Текущее время: Сегодня 12:31

Часовой пояс: GMT



Вы не можете начинать темы
Вы не можете отвечать на сообщения
Вы не можете редактировать свои сообщения
Вы не можете удалять свои сообщения
Вы не можете голосовать в опросах
Вы не можете прикреплять файлы к сообщениям
Вы не можете скачивать файлы