Интуиция / Serendipity (Питер Челсом / Peter Chelsom) [2001, мелодрама, комедия, BDRip 720p] DUB + Original + SUB[ENG/RUS]

 
Автор Сообщение

sergej644 ®

Пол:

Стаж: 4 года 11 месяцев

Сообщений: 6045

Откуда: Soviet Union



Награды: Нет

Торрент-статистика

Создавать темы 12-Авг-2014 11:34

[Цитировать]

--Интуиция / Serendipity
Год выпуска: 2001
Страна: США
Жанр: Мелодрама, комедия
Продолжительность: 01:30:58
Перевод:
Профессиональный (полное дублирование)
Русские субтитры: есть (два варианта)
Режиссер: Питер Челсом
В ролях: Джон Кьюсак, Кейт Бекинсейл, Джереми Пивен, Молли Шеннон, Майкл Джуарино мл., Юджин Леви, Кристал Бок, Стефен Брюс, Дэвид Спэрроу, Гари Гербрандт
Описание: В один суматошный зимний день, посреди нью-йоркской толпы Джонатан встретил Сару. Два незнакомых человека в объятом предновогодней лихорадкой городе обнаруживают, что их неодолимо тянет друг к другу.
И они решают проверить судьбу: он пишет свой телефон на банкноте, она — в книге. Купюру разменивают, а книгу сдают букинисту. Джонатан и Сара уверены, что скоро увидятся вновь. Но коварная судьба распорядилась по-своему.
Доп. информация:

User Rating: 6.7/10 (42,254 votes)
Хороший фильм, рекомендую.- Качество: BDRip (источник - Serendipity 2001 1080p US Blu-ray AVC DTS-HD MA 5.1-HDCLUB)
Формат: MKV
Видео кодек: H.264
Аудио кодек: AC3, DTS
Видео: 1280x720, 6047 kbps, 23.976 fps
Аудио1: Русский AC3 5.1, 48 KHz, 448 kbps профессиональный (полное дублирование)
Аудио2: Английский DTS 5.1, 48 KHz, 1536 kbps
Субтитры: Русские (с лицензии), русские (авторские), английские, английские (текст+песни), английские (SDH)

Скриншоты:

...................................BD............................B-frames........................DaRkY



MediaInfo

General
Unique ID : 206499347194955967706405992445887551488 (0x9B5A53DF4ACC03B7B8DE3A5C39C69800)
Complete name : Serendipity.2001.BD.Rip.720p.x264.Rus.Eng.mkv
Format : Matroska
Format version : Version 2
File size : 5.08 GiB
Duration : 1h 30mn
Overall bit rate : 7 999 Kbps
Encoded date : UTC 2012-01-26 04:27:20
Writing application : mkvmerge v5.2.1 ('A Far Off Place') built on Jan 7 2012 21:56:27
Writing library : libebml v1.2.3 + libmatroska v1.3.0
Video
ID : 1
Format : AVC
Format/Info : Advanced Video Codec
Format profile : High@L4.1
Format settings, CABAC : Yes
Format settings, ReFrames : 8 frames
Codec ID : V_MPEG4/ISO/AVC
Duration : 1h 30mn
Bit rate : 6 047 Kbps
Width : 1 280 pixels
Height : 720 pixels
Display aspect ratio : 16:9
Frame rate : 23.976 fps
Color space : YUV
Chroma subsampling : 4:2:0
Bit depth : 8 bits
Scan type : Progressive
Bits/(Pixel*Frame) : 0.274
Stream size : 3.74 GiB (74%)
Writing library : x264 core 120 r2146 bcd41db
Encoding settings : cabac=1 / ref=8 / deblock=1:-3:-3 / analyse=0x3:0x113 / me=tesa / subme=11 / psy=1 / psy_rd=1.00:0.00 / mixed_ref=1 / me_range=32 / chroma_me=1 / trellis=2 / 8x8dct=1 / cqm=0 / deadzone=21,11 / fast_pskip=0 / chroma_qp_offset=-2 / threads=6 / sliced_threads=0 / nr=0 / decimate=0 / interlaced=0 / bluray_compat=0 / constrained_intra=0 / bframes=12 / b_pyramid=2 / b_adapt=2 / b_bias=0 / direct=3 / weightb=1 / open_gop=0 / weightp=2 / keyint=250 / keyint_min=23 / scenecut=40 / intra_refresh=0 / rc_lookahead=40 / rc=2pass / mbtree=0 / bitrate=6047 / ratetol=1.0 / qcomp=0.60 / qpmin=0 / qpmax=69 / qpstep=4 / cplxblur=20.0 / qblur=0.5 / vbv_maxrate=50000 / vbv_bufsize=62500 / nal_hrd=none / ip_ratio=1.40 / pb_ratio=1.30 / aq=2:0.70
Language : English
Default : Yes
Forced : No
Audio #1
ID : 2
Format : AC-3
Format/Info : Audio Coding 3
Mode extension : CM (complete main)
Codec ID : A_AC3
Duration : 1h 30mn
Bit rate mode : Constant
Bit rate : 448 Kbps
Channel(s) : 6 channels
Channel positions : Front: L C R, Side: L R, LFE
Sampling rate : 48.0 KHz
Bit depth : 16 bits
Compression mode : Lossy
Stream size : 291 MiB (6%)
Title : Dub AC3 5.1 448 kbps
Language : Russian
Default : Yes
Forced : No
Audio #2
ID : 3
Format : DTS
Format/Info : Digital Theater Systems
Codec ID : A_DTS
Duration : 1h 30mn
Bit rate mode : Constant
Bit rate : 1 510 Kbps
Channel(s) : 6 channels
Channel positions : Front: L C R, Side: L R, LFE
Sampling rate : 48.0 KHz
Bit depth : 24 bits
Compression mode : Lossy
Stream size : 982 MiB (19%)
Title : DTS 5.1 1536 kbps
Language : English
Default : No
Forced : No
Text #1
ID : 4
Format : UTF-8
Codec ID : S_TEXT/UTF8
Codec ID/Info : UTF-8 Plain Text
Title : Licence
Language : Russian
Default : No
Forced : No
Text #2
ID : 5
Format : UTF-8
Codec ID : S_TEXT/UTF8
Codec ID/Info : UTF-8 Plain Text
Title : Unknown author; with songs
Language : Russian
Default : No
Forced : No
Text #3
ID : 6
Format : UTF-8
Codec ID : S_TEXT/UTF8
Codec ID/Info : UTF-8 Plain Text
Language : English
Default : No
Forced : No
Text #4
ID : 7
Format : UTF-8
Codec ID : S_TEXT/UTF8
Codec ID/Info : UTF-8 Plain Text
Title : With Songs
Language : English
Default : No
Forced : No
Text #5
ID : 8
Format : UTF-8
Codec ID : S_TEXT/UTF8
Codec ID/Info : UTF-8 Plain Text
Title : SDH
Language : English
Default : No
Forced : No
Menu
00:00:00.000 : en:1. Opening Credits: "A Fortunate Accident"
00:08:37.350 : en: 2. Astrological Freckles
00:12:00.762 : en: 3. Forwarding Fate
00:17:52.655 : en: 4. A Toast to Soulmates
00:22:34.687 : en: 5. Magical Elements
00:26:37.221 : en: 6. Searching for Sara
00:32:18.186 : en: 7. "Mr. Good-Enough-for-Right-Now"
00:36:08.958 : en: 8. Good Salesmanship
00:39:24.904 : en: 9. "One Last Fling"
00:42:46.272 : en:10. Tracking Down Destiny
00:49:38.100 : en:11. Signs and Clues
00:59:31.026 : en:12. The Groom's Gift
01:07:54.570 : en:13. "Everything Happens for a Reason"
01:11:50.181 : en:14. "Is It Over?"
01:16:14.278 : en:15. "An Exquisite, Sublime Plan"
01:25:38.425 : en:16. End Credits

x264log

avs [info]: 1280x720p 1:1 @ 24000/1001 fps (cfr)
x264 [info]: using SAR=1/1
x264 [info]: using cpu capabilities: MMX2 SSE2Fast SSSE3 FastShuffle SSE4.1 Cache64
x264 [info]: profile High, level 4.1
[b]x264 [info]: frame I:904 Avg QP:16.41 size:115627
x264 [info]: frame P:25275 Avg QP:19.40 size: 49188
x264 [info]: frame B:104671 Avg QP:20.45 size: 26480[/b]
[i]x264 [info]: consecutive B-frames: 1.4% 1.3% 3.9% 13.8% 16.9% 45.7% 10.0% 3.1% 1.8% 1.1% 0.4% 0.3% 0.2%[/i]
x264 [info]: mb I I16..4: 2.8% 83.5% 13.7%
x264 [info]: mb P I16..4: 0.3% 9.0% 0.8% P16..4: 29.8% 40.1% 14.9% 0.0% 0.0% skip: 5.1%
x264 [info]: mb B I16..4: 0.0% 1.0% 0.1% B16..8: 38.8% 27.9% 5.9% direct: 9.2% skip:17.0% L0:45.0% L1:42.8% BI:12.2%
x264 [info]: 8x8 transform intra:88.1% inter:61.1%
x264 [info]: direct mvs spatial:99.0% temporal:1.0%
x264 [info]: coded y,uvDC,uvAC intra: 95.4% 81.3% 45.7% inter: 50.6% 29.3% 4.7%
x264 [info]: i16 v,h,dc,p: 34% 14% 8% 44%
x264 [info]: i8 v,h,dc,ddl,ddr,vr,hd,vl,hu: 8% 6% 4% 11% 16% 16% 14% 13% 12%
x264 [info]: i4 v,h,dc,ddl,ddr,vr,hd,vl,hu: 9% 6% 6% 8% 17% 16% 14% 12% 11%
x264 [info]: i8c dc,h,v,p: 36% 25% 20% 19%
x264 [info]: Weighted P-Frames: Y:4.2% UV:1.3%
x264 [info]: ref P L0: 46.0% 5.2% 19.3% 9.6% 7.2% 5.6% 4.4% 2.6% 0.2% 0.0%
x264 [info]: ref B L0: 70.0% 14.9% 7.0% 3.7% 2.6% 1.3% 0.5%
x264 [info]: ref B L1: 92.4% 7.6%
x264 [info]: kb/s:6038.53
--
[Профиль] [ЛС]
Показать сообщения:    

Текущее время: Сегодня 06:07

Часовой пояс: GMT



Вы не можете начинать темы
Вы не можете отвечать на сообщения
Вы не можете редактировать свои сообщения
Вы не можете удалять свои сообщения
Вы не можете голосовать в опросах
Вы не можете прикреплять файлы к сообщениям
Вы не можете скачивать файлы