Интерстеллар / Interstellar (2014) BDRemux 1080p | IMAX Edition | Лицензия

 
Автор Сообщение

Russian Mafia ®

Пол:

Стаж: 1 год 8 месяцев

Сообщений: 4256



Награды: 10 (Подробнее)

Top Releaser 2 (Количество: 1) Top Releaser 3 (Количество: 1) Top Releaser 4 (Количество: 1)
Торрент-статистика

Создавать темы 18-Апр-2015 18:03

[Цитировать]

Информация о фильме
Название: Интерстеллар
Оригинальное название: Interstellar
Год выхода: 2014
Жанр: фантастика, боевик, детектив, приключения
Режиссер: Кристофер Нолан
В ролях: Мэттью МакКонахи, Энн Хэтэуэй, Кейси Аффлек, Джессика Честейн, Тофер Грейс, Уэс Бентли, Майкл Кейн, Маккензи Фой, Джон Литгоу, Эллен Бёрстин
О фильме: Когда засуха приводит человечество к продовольственному кризису, коллектив исследователей и учёных отправляется сквозь червоточину (которая предположительно соединяет области пространства-времени через большое расстояние) в путешествие, чтобы превзойти прежние ограничения для космических путешествий человека и переселить человечество на другую планету.

Выпущено: США, Великобритания / Legendary Pictures, Lynda Obst Productions, Paramount Pictures, Warner Bros.
Продолжительность: 02:49:03
Перевод: Профессиональный (полное дублирование) - iTunes
Профессиональный (многоголосый, закадровый) - студия «Омикрон»
Авторский (одноголосый, закадровый) - Д.Есарев
Файл
Качество: BDRemux 1080p
Формат: MKV
Видео: MPEG4/AVC, 25.7 Mбит/сек, 1920х1080 (16:9), 23.976 кадра/сек
Аудио 1: AC3, 6 каналов, 384 Кбит/сек | Русский - iTunes
Аудио 2: AC3, 6 каналов, 640 Кбит/сек | Русский - студия «Омикрон»
Аудио 3: AC3, 6 каналов, 640 Кбит/сек | Русский - Д.Есарев
Аудио 4: AC3, 2 канала, 192 Кбит/сек | Украинский - iTunes
Аудио 5: DTS-HD MA, 6 каналов, 3731 Кбит/сек | Русский - студия «Омикрон»
Аудио 6: DTS-HD MA, 6 каналов, 3734 Кбит/сек | Русский - Д.Есарев
Аудио 7: DTS-HD MA, 6 каналов, 3693 Кбит/сек | Английский
Аудио 8: AC3, 6 каналов, 640 Кбит/сек | Английский | Комментарии
Субтитры: Русские, английские (Full, SDH)
Навигация по главам: Есть

MediaInfo:

Общее
Уникальный идентификатор : 237724930605949843596491260937922135047 (0xB2D827FF38FB968DAF16A7F8CB8FC407)
Полное имя : Interstellar. (2014) BDRemux 1080p.mkv
Формат : Matroska
Версия формата : Version 2
Размер файла : 44,7 Гбайт
Продолжительность : 2 ч. 49 м.
Режим общего битрейта : Переменный
Общий поток : 37,9 Мбит/сек
Название фильма : Interstellar. 2014
Дата кодирования : UTC 2015-03-17 16:57:50
Программа кодирования : mkvmerge v5.8.0 ('No Sleep / Pillow') built on Sep 2 2012 15:37:04
Библиотека кодирования : libebml v1.2.3 + libmatroska v1.3.0
Видео
Идентификатор : 1
Формат : AVC
Формат/Информация : Advanced Video Codec
Профиль формата : High@L4.1
Параметр CABAC формата : Да
Параметр ReFrames формата : 2 кадра
Параметр GOP формата : M=1, N=10
Идентификатор кодека : V_MPEG4/ISO/AVC
Продолжительность : 2 ч. 49 м.
Вид битрейта : Переменный
Ширина : 1920 пикселей
Высота : 1080 пикселей
Соотношение сторон : 16:9
Режим частоты кадров : Постоянный
Частота кадров : 23,976 кадра/сек
Цветовое пространство : YUV
Субдискретизация насыщенности : 4:2:0
Битовая глубина : 8 бит
Тип развёртки : Прогрессивная
Заголовок : RARBG | BuR
Язык : English
Default : Да
Forced : Нет
Аудио #1
Идентификатор : 2
Формат : AC-3
Формат/Информация : Audio Coding 3
Расширение режима : CM (complete main)
Параметр Endianness формата : Big
Идентификатор кодека : A_AC3
Продолжительность : 2 ч. 49 м.
Вид битрейта : Постоянный
Битрейт : 384 Кбит/сек
Каналы : 6 каналов
Расположение каналов : Front: L C R, Side: L R, LFE
Частота : 48,0 КГц
Битовая глубина : 16 бит
Метод сжатия : С потерями
Размер потока : 464 Мбайт (1%)
Заголовок : AC3 5.1 | DUB | iTunes
Язык : Russian
Default : Да
Forced : Нет
Аудио #2
Идентификатор : 3
Формат : AC-3
Формат/Информация : Audio Coding 3
Расширение режима : CM (complete main)
Параметр Endianness формата : Big
Идентификатор кодека : A_AC3
Продолжительность : 2 ч. 49 м.
Вид битрейта : Постоянный
Битрейт : 640 Кбит/сек
Каналы : 6 каналов
Расположение каналов : Front: L C R, Side: L R, LFE
Частота : 48,0 КГц
Битовая глубина : 16 бит
Метод сжатия : С потерями
Размер потока : 774 Мбайт (2%)
Заголовок : AC3 5.1 | MVO | Омикрон
Язык : Russian
Default : Нет
Forced : Нет
Аудио #3
Идентификатор : 4
Формат : AC-3
Формат/Информация : Audio Coding 3
Расширение режима : CM (complete main)
Параметр Endianness формата : Big
Идентификатор кодека : A_AC3
Продолжительность : 2 ч. 49 м.
Вид битрейта : Постоянный
Битрейт : 640 Кбит/сек
Каналы : 6 каналов
Расположение каналов : Front: L C R, Side: L R, LFE
Частота : 48,0 КГц
Битовая глубина : 16 бит
Метод сжатия : С потерями
Размер потока : 774 Мбайт (2%)
Заголовок : AC3 5.1 | A | Д. Есарев
Язык : Russian
Default : Нет
Forced : Нет
Аудио #4
Идентификатор : 5
Формат : AC-3
Формат/Информация : Audio Coding 3
Расширение режима : CM (complete main)
Параметр Endianness формата : Big
Идентификатор кодека : A_AC3
Продолжительность : 2 ч. 49 м.
Вид битрейта : Постоянный
Битрейт : 192 Кбит/сек
Каналы : 2 канала
Расположение каналов : Front: L R
Частота : 48,0 КГц
Битовая глубина : 16 бит
Метод сжатия : С потерями
Размер потока : 232 Мбайт (1%)
Заголовок : AC3 2.0 | DUB | iTunes
Язык : Ukrainian
Default : Нет
Forced : Нет
Аудио #5
Идентификатор : 6
Формат : DTS
Формат/Информация : Digital Theater Systems
Профиль формата : MA / Core
Режим : 16
Параметр Endianness формата : Big
Идентификатор кодека : A_DTS
Продолжительность : 2 ч. 49 м.
Вид битрейта : Переменный
Битрейт : Неизвестно / 1509 Кбит/сек
Каналы : 6 каналов
Расположение каналов : Front: L C R, Side: L R, LFE
Частота : 48,0 КГц
Битовая глубина : 24 бит
Метод сжатия : Без потерь / Lossy
Задержка видео : 21 мс.
Заголовок : DTS-HD MA 5.1 | Омикрон
Язык : Russian
Default : Нет
Forced : Нет
Аудио #6
Идентификатор : 7
Формат : DTS
Формат/Информация : Digital Theater Systems
Профиль формата : MA / Core
Режим : 16
Параметр Endianness формата : Big
Идентификатор кодека : A_DTS
Продолжительность : 2 ч. 49 м.
Вид битрейта : Переменный
Битрейт : Неизвестно / 1509 Кбит/сек
Каналы : 6 каналов
Расположение каналов : Front: L C R, Side: L R, LFE
Частота : 48,0 КГц
Битовая глубина : 24 бит
Метод сжатия : Без потерь / Lossy
Заголовок : DTS-HD MA 5.1 | Д. Есарев
Язык : Russian
Default : Нет
Forced : Нет
Аудио #7
Идентификатор : 8
Формат : DTS
Формат/Информация : Digital Theater Systems
Профиль формата : MA / Core
Режим : 16
Параметр Endianness формата : Big
Идентификатор кодека : A_DTS
Продолжительность : 2 ч. 49 м.
Вид битрейта : Переменный
Битрейт : Неизвестно / 1509 Кбит/сек
Каналы : 6 каналов
Расположение каналов : Front: L C R, Side: L R, LFE
Частота : 48,0 КГц
Битовая глубина : 24 бит
Метод сжатия : Без потерь / Lossy
Заголовок : DTS-HD MA 5.1 | Original
Язык : English
Default : Нет
Forced : Нет
Аудио #8
Идентификатор : 9
Формат : AC-3
Формат/Информация : Audio Coding 3
Расширение режима : CM (complete main)
Параметр Endianness формата : Big
Идентификатор кодека : A_AC3
Продолжительность : 2 ч. 49 м.
Вид битрейта : Постоянный
Битрейт : 640 Кбит/сек
Каналы : 6 каналов
Расположение каналов : Front: L C R, Side: L R, LFE
Частота : 48,0 КГц
Битовая глубина : 16 бит
Метод сжатия : С потерями
Размер потока : 774 Мбайт (2%)
Заголовок : Deive
Язык : English
Default : Нет
Forced : Нет
Текст #1
Идентификатор : 10
Формат : UTF-8
Идентификатор кодека : S_TEXT/UTF8
Идентификатор кодека/Информация : UTF-8 Plain Text
Заголовок : Full
Язык : Russian
Default : Нет
Forced : Нет
Текст #2
Идентификатор : 11
Формат : UTF-8
Идентификатор кодека : S_TEXT/UTF8
Идентификатор кодека/Информация : UTF-8 Plain Text
Заголовок : Full
Язык : English
Default : Нет
Forced : Нет
Текст #3
Идентификатор : 12
Формат : UTF-8
Идентификатор кодека : S_TEXT/UTF8
Идентификатор кодека/Информация : UTF-8 Plain Text
Заголовок : SDH
Язык : English
Default : Нет
Forced : Нет
Меню
00:00:00.000 : en:Chapter 01
00:09:35.283 : en:Chapter 02
00:17:12.281 : en:Chapter 03
00:25:00.707 : en:Chapter 04
00:35:45.101 : en:Chapter 05
00:42:16.825 : en:Chapter 06
00:50:19.558 : en:Chapter 07
00:54:47.784 : en:Chapter 08
00:58:59.369 : en:Chapter 09
01:06:14.971 : en:Chapter 10
01:17:28.018 : en:Chapter 11
01:25:31.960 : en:Chapter 12
01:34:31.957 : en:Chapter 13
01:46:14.659 : en:Chapter 14
01:55:34.510 : en:Chapter 15
02:02:14.327 : en:Chapter 16
02:12:56.802 : en:Chapter 17
02:20:53.778 : en:Chapter 18
02:35:12.052 : en:Chapter 19
02:43:59.830 : en:Chapter 20

Скриншоты

Внимание! Часть фильма снята с применением технологии IMAX, поэтому сцены где не была использована эта технология содержат черные полосы.
[Профиль] [ЛС]
Показать сообщения:    

Текущее время: Сегодня 00:33

Часовой пояс: GMT



Вы не можете начинать темы
Вы не можете отвечать на сообщения
Вы не можете редактировать свои сообщения
Вы не можете удалять свои сообщения
Вы не можете голосовать в опросах
Вы не можете прикреплять файлы к сообщениям
Вы не можете скачивать файлы