Интерстеллар / Interstellar (Кристофер Нолан) [2014, фантастика, боевик, детектив, приключения] BDRip от ExKinoRay | IMAX Edition | P

 
Автор Сообщение

BOSS ®

Пол:

Стаж: 2 года 1 месяц

Сообщений: 3713

Откуда: ODESSA



Награды: 20 (Подробнее)

Top Keeper 2 (Количество: 1) Top Keeper 3 (Количество: 1) Mega Seeder 2 (Количество: 1)
Торрент-статистика

Создавать темы 17-Мар-2015 18:12

[Цитировать]

Информация о фильме
Название: Интерстеллар
Оригинальное название: Interstellar
Год выхода: 2014
Жанр: фантастика, боевик, детектив, приключения
Режиссер: Кристофер Нолан
В ролях: Мэттью МакКонахи, Энн Хэтэуэй, Кейси Аффлек, Джессика Честейн, Тофер Грейс, Уэс Бентли, Майкл Кейн, Маккензи Фой, Джон Литгоу, Эллен Бёрстин
О фильме:
Когда засуха приводит человечество к продовольственному кризису, коллектив исследователей и учёных отправляется сквозь червоточину (которая предположительно соединяет области пространства-времени через большое расстояние) в путешествие, чтобы превзойти прежние ограничения для космических путешествий человека и переселить человечество на другую планету.

Выпущено: США, Великобритания / Legendary Pictures, Lynda Obst Productions, Paramount Pictures, Warner Bros.
Продолжительность: 02:49:03
Перевод: Профессиональный многоголосый
Файл
Качество: BDRip
Видео: XviD, 1390 Кбит/с, 720x400
Аудио: AC3, 6 ch, 448 Кбит/с
Семпл
Переведено и озвучено студией «Омикрон», при поддержке HDClub
Задействовано 10 актеров. Майкла Кейна (Professor Brand) озвучивает Владислав Пупков - Легенда Дубляжа.
Перевод и озвучивание осуществлено в рамках сервиса "Озвучивание" HDClub. Спонсоры: nod, pppaul, MishGan2008, diezel, McClaud, kinomexanik, CristaS, AmigoDen, xmods, Bellerofont, Fenix_Zz, ultrajeka, shagun, Кириллка, Ser2207, Bluray, rassvet, DaniLch, motpac, melanin, Juve, TiberianZ, rivaspb, PoHHaN, Confidence, darkzim, Dabrynych, iiiMia, BEZYMNIY, maxv, hardkatok, Pertcev, Duff82, king3, lemonarium, tambov68, ADIC, Evgecha_72, Ex1l, GlebBorschev, anton48, FilimoniC, mcevg, SharkHD, niksource, Steal, ZeRoNe, ip_komyagin, UltraHD, John05, Tahoe, Dud, october2, urvakanner, baivlad, goriathid, paha1, Mockatt, G_R_U, Аркан75, four_finger, AlexHD, Ignessio, lex077, irrlicht, sum, Dark_Victor, dkolot.--

Media Info

General
Complete name : C:Interstellar.2014.P.BDRip.2100.ExKinoRay.avi
Format : AVI
Format/Info : Audio Video Interleave
Format profile : OpenDML
File size : 2.18 GiB
Duration : 2h 49mn
Overall bit rate : 1 850 Kbps
Writing application : VirtualDubMod 1.5.10.2 (build 2540/release)
Writing library : VirtualDubMod build 2540/release
Copyright : ExKinoRay
Video
ID : 0
Format : MPEG-4 Visual
Format profile : Advanced Simple@L5
Format settings, BVOP : 1
Format settings, QPel : No
Format settings, GMC : No warppoints
Format settings, Matrix : Custom
Codec ID : XVID
Codec ID/Hint : XviD
Duration : 2h 49mn
Bit rate : 1 390 Kbps
Width : 720 pixels
Height : 400 pixels
Display aspect ratio : 16:9
Frame rate : 23.976 fps
Color space : YUV
Chroma subsampling : 4:2:0
Bit depth : 8 bits
Scan type : Progressive
Compression mode : Lossy
Bits/(Pixel*Frame) : 0.201
Stream size : 1.64 GiB (75%)
Writing library : XviD 73
Audio
ID : 1
Format : AC-3
Format/Info : Audio Coding 3
Mode extension : CM (complete main)
Format settings, Endianness : Big
Codec ID : 2000
Duration : 2h 49mn
Bit rate mode : Constant
Bit rate : 448 Kbps
Channel(s) : 6 channels
Channel positions : Front: L C R, Side: L R, LFE
Sampling rate : 48.0 KHz
Bit depth : 16 bits
Compression mode : Lossy
Stream size : 542 MiB (24%)
Alignment : Split accross interleaves
Interleave, duration : 42 ms (1.00 video frame)
Interleave, preload duration : 500 ms
Title : MVO

Скриншоты



-Внимание! Часть фильма снята с применением технологии IMAX, поэтому сцены где не была использована эта технология содержат черные полосы.
[Профиль] [ЛС]
Показать сообщения:    

Текущее время: Сегодня 15:58

Часовой пояс: GMT



Вы не можете начинать темы
Вы не можете отвечать на сообщения
Вы не можете редактировать свои сообщения
Вы не можете удалять свои сообщения
Вы не можете голосовать в опросах
Вы не можете прикреплять файлы к сообщениям
Вы не можете скачивать файлы